<?xml version="1.0" standalone="no"?>
<!DOCTYPE svg PUBLIC "-//W3C//DTD SVG 1.1//EN" "http://www.w3.org/Graphics/SVG/1.1/DTD/svg11.dtd" >
<svg xmlns="http://www.w3.org/2000/svg" xmlns:xlink="http://www.w3.org/1999/xlink" version="1.1">
<metadata></metadata>
<defs>
<font id="augustlight" horiz-adv-x="1103" >
<font-face units-per-em="2048" ascent="1393" descent="-655" />
<missing-glyph horiz-adv-x="522" />
<glyph unicode="&#xfb01;" horiz-adv-x="833" d="M10 844v123q0 8 8 8h154q8 0 8 8v225q0 99 61.5 157t157.5 58q67 0 142 -28q6 -2 18 -2h143q9 0 9 -9v-161q0 -9 -9 -9h-139q-7 0 -14 7q-23 25 -61.5 47t-73.5 22q-76 0 -76 -73v-234q0 -8 8 -8h356q9 0 9 -8v-959q0 -8 -9 -8h-143q-8 0 -8 8v819q0 9 -8 9h-197 q-8 0 -8 -9v-819q0 -8 -8 -8h-142q-8 0 -8 8v819q0 9 -8 9h-154q-8 0 -8 8z" />
<glyph unicode="&#xfb02;" horiz-adv-x="831" d="M10 844v123q0 8 8 8h154q8 0 8 8v236q0 94 54.5 149t148.5 55q13 0 26 -1t22 -1.5t21.5 -3t18.5 -3.5t19 -4.5t16.5 -4.5t18 -5t16.5 -5q6 -2 18 -2h141q9 0 9 -9v-1376q0 -8 -9 -8h-141q-8 0 -8 8v819q0 9 -8 9h-197q-8 0 -8 -9v-819q0 -8 -8 -8h-142q-8 0 -8 8v819 q0 9 -8 9h-154q-8 0 -8 8zM338 983q0 -8 8 -8h197q8 0 8 8v252q0 6 -4 14q-25 41 -109 41q-100 0 -100 -78v-229z" />
<glyph horiz-adv-x="0" />
<glyph horiz-adv-x="682" />
<glyph unicode=" "  horiz-adv-x="522" />
<glyph unicode="&#x09;" horiz-adv-x="522" />
<glyph unicode="&#xa0;" horiz-adv-x="522" />
<glyph unicode="!" horiz-adv-x="475" d="M154 881v503q0 9 8 9h153q7 0 7 -9v-501q0 -133 -13 -451q0 -6 -4 -6h-135q-4 0 -4 6q-12 294 -12 449zM158 8q0 -8 8 -8h143q8 0 8 8v275q0 8 -8 8h-141q-10 0 -10 -8v-275z" />
<glyph unicode="&#x22;" horiz-adv-x="743" d="M154 1231v153q0 9 8 9h145q8 0 8 -9v-153l-49 -434q0 -9 -8 -9h-51q-8 0 -8 9zM428 1231v153q0 9 8 9h146q8 0 8 -9v-153l-49 -434q0 -9 -9 -9h-51q-8 0 -8 9z" />
<glyph unicode="#" horiz-adv-x="1218" d="M29 442l10 121q0 8 8 8h270q7 0 7 9l16 215q0 8 -6 8h-258q-6 0 -6 8l10 121q0 8 6 8h256q6 0 6 8l33 436q0 9 8 9h123q6 0 6 -9l-31 -436q0 -8 7 -8h247q7 0 7 8l32 436q0 9 8 9h123q7 0 7 -9l-31 -436q0 -8 6 -8h272q6 0 6 -8l-10 -121q0 -8 -8 -8h-268q-6 0 -6 -8 l-17 -215q0 -9 6 -9h256q6 0 6 -8l-10 -121q0 -8 -6 -8h-254q-6 0 -6 -8l-33 -418q0 -8 -6 -8h-123q-8 0 -8 8l31 418q0 8 -6 8h-248q-6 0 -6 -8l-33 -418q0 -8 -6 -8h-123q-8 0 -8 8l30 418q0 8 -6 8h-274q-6 0 -6 8zM463 580q0 -9 6 -9h248q6 0 6 9l16 215q0 8 -6 8h-248 q-6 0 -6 -8z" />
<glyph unicode="$" horiz-adv-x="1163" d="M20 457q0 8 9 8h141q8 0 8 -8q0 -84 46 -164.5t137.5 -135.5t205.5 -55q158 0 244 73t86 187q0 50 -9 86.5t-34 70t-72.5 59.5t-119.5 47q-82 21 -138 37t-122 40t-108.5 47t-86 56.5t-68 71t-40 87.5t-15.5 109q0 144 108 236t279 110v176q0 9 8 9h121q8 0 8 -9v-176 q196 -17 296 -127t100 -282q0 -9 -9 -9h-135q-8 0 -8 9q0 130 -77.5 205t-231.5 75q-145 0 -223 -59.5t-78 -161.5q0 -45 14 -81t50 -65.5t68 -49.5t99.5 -43t111.5 -35.5t134 -36.5q172 -46 254 -144t82 -235q0 -76 -28 -145t-81.5 -126.5t-140.5 -94t-197 -42.5v-168 q0 -8 -8 -8h-121q-8 0 -8 8v174q-197 25 -324 158t-127 322z" />
<glyph unicode="%" horiz-adv-x="1552" d="M119 1092q0 87 38.5 162t113 122t169.5 47q131 0 225.5 -98t94.5 -233q0 -85 -40.5 -161.5t-115 -124.5t-164.5 -48q-138 0 -229.5 98t-91.5 236zM203 2q2 -2 4 -2h174q6 0 12 6q324 506 946 1383q0 4 -4 4h-166q-4 0 -8 -4q-123 -198 -449.5 -668.5t-504.5 -710.5 q-4 -4 -4 -8zM266 1092q0 -77 46 -130t128 -53q71 0 121.5 54.5t50.5 128.5t-49 127t-123 53q-78 0 -126 -52t-48 -128zM793 303q0 87 38.5 162t113 122.5t169.5 47.5q130 0 225 -98.5t95 -233.5q0 -85 -40.5 -161.5t-115 -124.5t-164.5 -48q-138 0 -229.5 98t-91.5 236z M940 303q0 -77 46 -129.5t128 -52.5q71 0 121.5 54t50.5 128t-49 127t-123 53q-78 0 -126 -52t-48 -128z" />
<glyph unicode="&#x26;" horiz-adv-x="1153" d="M59 342q0 58 14 108.5t35.5 88t60.5 77.5t73 67.5t90 68.5q3 3 0 6l-53 53q-81 81 -114.5 142t-33.5 159q0 97 52 169.5t129.5 107t164.5 34.5q149 0 249.5 -82t100.5 -227q0 -36 -8 -69.5t-24.5 -63t-32 -52.5t-42.5 -49t-42.5 -40t-45 -38t-38.5 -32l-43 -37 q-3 -3 0 -6l319 -328q4 -3 7 0q7 11 13 30.5t9.5 39t6.5 44.5t4 41t2 36t1 22q0 9 7 9h139q8 0 8 -9v-28q0 -72 -22.5 -155.5t-63.5 -149.5q-2 -2 -2 -5q0 -2 2 -2l238 -260q2 -2 2 -6q0 -6 -4 -6h-179q-4 0 -12 8l-129 139q-3 3 -6 0q-76 -93 -170.5 -135.5t-222.5 -42.5 q-212 0 -325.5 101t-113.5 272zM205 342q0 -33 7 -63.5t27 -62t51.5 -54t85 -37t122.5 -14.5q106 0 178 34.5t123 110.5q3 5 0 8l-367 377q-5 5 -10 0q-127 -89 -172 -150t-45 -149zM283 1112q0 -32 6.5 -59.5t14 -46t27 -42t32 -36.5t42.5 -41.5t46 -44.5q4 -4 8 0l37 28 q38 29 62 50t56.5 54.5t49 69t16.5 70.5q0 74 -62 126t-143 52q-80 0 -136 -52t-56 -128z" />
<glyph unicode="'" horiz-adv-x="468" d="M154 1231v153q0 9 8 9h145q8 0 8 -9v-153l-49 -434q-3 -9 -8 -9h-51q-8 0 -8 9z" />
<glyph unicode="(" horiz-adv-x="606" d="M51 569q0 140 28.5 272t71 228.5t97 178.5t101 130.5t87.5 77.5q9 6 17 6h114q12 0 4 -8q-350 -367 -350 -889q0 -497 350 -864q8 -8 -4 -8h-114q-8 0 -17 6q-40 28 -86.5 76.5t-101 129.5t-97.5 175.5t-71.5 223.5t-28.5 265z" />
<glyph unicode=")" horiz-adv-x="606" d="M35 -299q350 367 350 864q0 522 -350 889q-8 8 4 8h115q7 0 16 -6q41 -29 87.5 -77.5t101 -130.5t97 -178.5t71 -228.5t28.5 -272q0 -136 -28.5 -265t-71.5 -223.5t-97.5 -175.5t-101 -129.5t-86.5 -76.5q-9 -6 -16 -6h-115q-12 0 -4 8z" />
<glyph unicode="*" horiz-adv-x="923" d="M84 1075l39 121q2 5 3.5 7t4.5 1l260 -96q6 -2 6 4l-8 277q0 4 8 4h127q8 0 8 -4l-8 -277q0 -4 6 -4l258 92q5 2 6 -2q1 -1 1 -2l39 -121q2 -7 -3 -12l-264 -76q-5 -3 -2 -6l168 -217q3 -3 0 -5q-1 -2 -2 -3l-104 -74q-7 -5 -13 -2l-153 227q-2 4 -6 0l-156 -227 q-2 -3 -8 0l-103 76q-6 4 -6 10l170 217q2 4 -2 6l-264 78q-5 2 -2 8z" />
<glyph unicode="+" horiz-adv-x="1083" d="M72 643v129q0 8 8 8h377q8 0 8 8v388q0 8 8 8h129q8 0 8 -8v-388q0 -8 8 -8h386q8 0 8 -8v-129q0 -8 -8 -8h-386q-8 0 -8 -8v-398q0 -8 -8 -8h-129q-8 0 -8 8v398q0 8 -8 8h-377q-8 0 -8 8z" />
<glyph unicode="," horiz-adv-x="468" d="M133 8v275q0 8 8 8h166q8 0 8 -8v-381q0 -109 -33.5 -163t-129.5 -54q-9 0 -9 6v63q0 8 9 8q51 0 66 30t15 108v92q0 8 -6 8h-86q-8 0 -8 8z" />
<glyph unicode="-" horiz-adv-x="808" d="M113 522v129q0 8 8 8h567q8 0 8 -8v-129q0 -8 -8 -8h-567q-8 0 -8 8z" />
<glyph unicode="." horiz-adv-x="446" d="M133 8v275q0 8 8 8h164q8 0 8 -8v-277q0 -6 -6 -6h-166q-8 0 -8 8z" />
<glyph unicode="/" horiz-adv-x="716" d="M-29 6l623 1380q4 7 8 7h139q7 0 4 -7l-624 -1380q-3 -6 -8 -6h-138q-7 0 -4 6z" />
<glyph unicode="0" horiz-adv-x="1185" d="M92 506v383q0 117 31 213.5t91.5 168.5t157.5 112t222 40q245 0 372.5 -141t127.5 -393v-383q0 -110 -30.5 -205.5t-90 -170.5t-157 -118t-222.5 -43q-135 0 -233.5 40t-156.5 113.5t-85 168.5t-27 215zM236 520q0 -209 82.5 -316.5t275.5 -107.5q354 0 354 424v318 q0 458 -354 458q-184 0 -271 -121t-87 -337v-318z" />
<glyph unicode="1" horiz-adv-x="653" d="M47 1124v129q0 8 8 11l361 157q3 2 6.5 1.5t3.5 -3.5v-1411q0 -8 -8 -8h-137q-9 0 -9 8v1204q0 5 -2 5l-215 -97q-8 -4 -8 4z" />
<glyph unicode="2" horiz-adv-x="1019" d="M78 975v63q0 179 109 282t298 103h47q194 0 305 -102t111 -289q0 -67 -9 -118.5t-35.5 -106t-72.5 -99t-123 -89.5t-184 -87q-153 -59 -198 -88q-68 -45 -83 -122q-7 -32 -7 -76v-99q0 -8 8 -8l694 4q8 0 8 -8v-127q0 -8 -8 -8h-850q-8 0 -8 8v234q0 87 23 151 t75.5 112.5t119.5 83.5t173 73q101 36 164.5 72.5t99 82.5t48 95t12.5 120q0 254 -269 254h-34q-117 0 -190 -61.5t-73 -180.5v-69q0 -8 -8 -8h-135q-8 0 -8 8z" />
<glyph unicode="3" horiz-adv-x="1071" d="M66 342v82q0 8 8 8h135q8 0 8 -8v-57q0 -128 77 -194.5t228 -66.5q71 0 126.5 13t100.5 43t69 84t24 131v45q0 82 -56 144.5t-135 91t-164 28.5h-137q-8 0 -8 8v113q0 8 8 8h139q47 0 91 8t85 26.5t71.5 46.5t48.5 69.5t18 93.5q0 128 -72 177.5t-219 49.5 q-107 0 -171.5 -50t-64.5 -142v-35q0 -8 -8 -8h-135q-8 0 -8 8v63q0 73 35.5 132t94 95t129.5 55t148 19q424 0 424 -354q0 -131 -71.5 -209.5t-184.5 -103.5q-3 0 -3 -2t3 -2q55 -6 104 -26.5t93 -57t70 -97.5t26 -139v-49q0 -193 -134 -303.5t-339 -110.5q-119 0 -221 43 t-167.5 129.5t-65.5 200.5z" />
<glyph unicode="4" d="M37 358v121q0 12 6 21l621 884q6 9 12 9h215q8 0 8 -9v-888q0 -9 8 -9h178q9 0 9 -8v-121q0 -8 -9 -8h-178q-8 0 -8 -8v-334q0 -8 -8 -8h-135q-8 0 -8 8v334q0 8 -9 8h-694q-8 0 -8 8zM195.5 493q-0.5 -2 1 -4t6.5 -2h536q9 0 9 9v766q0 6 -5 3l-2 -3l-544 -766 q-1 -1 -1.5 -3z" />
<glyph unicode="5" horiz-adv-x="1040" d="M76 332v67q0 9 8 9h135q8 0 8 -9v-53q0 -101 73.5 -167t209.5 -66q168 0 238.5 76.5t70.5 236.5v39q0 50 -6 90.5t-25 85.5t-51 75t-88.5 50t-132.5 20q-61 0 -111 -10.5t-85.5 -31t-54 -35.5t-40.5 -37q-7 -7 -12 -4l-92 43q-4 2 -4 10l80 665q0 7 6 7h665q9 0 9 -9 v-120q0 -9 -9 -9h-542q-7 0 -7 -6l-47 -407q0 -6 4 -2q96 84 246 84q451 0 451 -453v-51q0 -68 -15.5 -130.5t-50.5 -120.5t-87.5 -100.5t-132 -68t-177.5 -25.5q-91 0 -166 22.5t-124 58.5t-82 83.5t-47.5 95.5t-14.5 97z" />
<glyph unicode="6" horiz-adv-x="1107" d="M84 588q0 185 27.5 330.5t73.5 239t111.5 154.5t136.5 86t153 25q165 0 279 -98t132 -242q0 -8 -8 -8h-137h-4q-3 0 -3 3l-1 3q-14 86 -83 145.5t-175 59.5q-85 0 -148.5 -37t-104 -107.5t-64 -164t-33.5 -215.5q0 -8 4 -4q2 2 2 4q43 85 132.5 139.5t215.5 54.5 q206 0 329 -125t123 -364q0 -218 -135 -358t-342 -140q-232 0 -356.5 161.5t-124.5 457.5zM250 467q0 -95 36.5 -176t110.5 -133t172 -52q153 0 237.5 93.5t84.5 267.5q0 170 -82.5 261t-222.5 91q-136 0 -236 -103t-100 -249z" />
<glyph unicode="7" horiz-adv-x="827" d="M-6 1264v120q0 9 8 9h838q8 0 8 -9v-120q0 -7 -8 -15q-91 -99 -152.5 -178t-122 -183t-95 -210t-56 -245.5t-21.5 -305.5v-119q0 -8 -8 -8h-135q-8 0 -8 8v105q0 155 19 288.5t65.5 277.5t134 287.5t215.5 282.5q2 4 -2 6h-672q-8 0 -8 9z" />
<glyph unicode="8" horiz-adv-x="1112" d="M78 397q0 282 260 361q8 0 0 4q-199 97 -199 305q0 117 55.5 199t148.5 119.5t216 37.5q190 0 303 -90t113 -266q0 -197 -203 -305q-8 -4 0 -4q33 -10 65 -25.5t69 -45.5t64.5 -68t45.5 -96t18 -126q0 -130 -66 -229t-173.5 -149t-235.5 -50q-135 0 -242 46t-173 144.5 t-66 237.5zM229 397q0 -85 30 -145t81 -90.5t104.5 -43t114.5 -12.5q324 0 324 291q0 78 -25.5 135t-71.5 89.5t-102.5 47.5t-124.5 15t-125.5 -15t-104.5 -47.5t-73.5 -89.5t-26.5 -135zM295 1067q0 -108 72 -177t192 -69q122 0 190 67.5t68 178.5q0 50 -15.5 89t-40.5 63 t-59.5 39.5t-69 21.5t-73.5 6q-123 0 -193.5 -49.5t-70.5 -169.5z" />
<glyph unicode="9" horiz-adv-x="1085" d="M66 956q0 94 27 175.5t80.5 148t143.5 105t207 38.5q124 0 217.5 -40t148.5 -111t82 -160.5t27 -196.5q0 -17 1 -55t1 -78q0 -182 -15.5 -314.5t-48.5 -229.5t-88 -155.5t-131 -86t-181 -27.5q-87 0 -158.5 22t-118 57.5t-79.5 83t-49 94.5t-21 96q0 8 8 8h139q8 0 8 -8 q8 -94 79.5 -159t191.5 -65q81 0 137 20.5t93 59t59 108.5t32 154.5t14 210.5q0 12 -4 0q-38 -80 -129 -130t-225 -50q-219 0 -333.5 132t-114.5 353zM211 956q0 -168 76 -258t227 -90q164 0 255 85.5t91 258.5q0 67 -19 125.5t-56.5 106t-101.5 75t-148 27.5 q-161 0 -242.5 -84t-81.5 -246z" />
<glyph unicode=":" horiz-adv-x="468" d="M133 8v275q0 8 8 8h164q8 0 8 -8v-277q0 -6 -6 -6h-166q-8 0 -8 8zM133 518v275q0 8 8 8h164q8 0 8 -8v-277q0 -6 -6 -6h-166q-8 0 -8 8z" />
<glyph unicode=";" horiz-adv-x="468" d="M133 8v275q0 8 8 8h166q8 0 8 -8v-381q0 -109 -33.5 -163t-129.5 -54q-9 0 -9 6v63q0 8 9 8q51 0 66 30t15 108v96q0 4 -6 4h-86q-8 0 -8 8zM133 518v275q0 8 8 8h164q8 0 8 -8v-277q0 -6 -6 -6h-166q-8 0 -8 8z" />
<glyph unicode="&#x3c;" horiz-adv-x="1069" d="M154 653v101q0 5 6 8l801 434q6 3 6 -2v-150q0 -6 -4 -8l-621 -329q-3 -1 -3 -4t3 -5l621 -331q4 -4 4 -9v-145q0 -7 -6 -4l-801 436q-6 3 -6 8z" />
<glyph unicode="=" horiz-adv-x="1136" d="M113 473v135q0 8 10 8h891q10 0 10 -8v-135q0 -8 -8 -8h-895q-8 0 -8 8zM113 813v135q0 8 10 8h891q10 0 10 -8v-135q0 -8 -8 -8h-895q-8 0 -8 8z" />
<glyph unicode="&#x3e;" horiz-adv-x="1069" d="M102 213v145q0 5 4 9l621 331q3 2 3 5t-3 4l-621 329q-4 2 -4 8v150q0 6 7 2l800 -434q6 -3 6 -8v-101q0 -5 -6 -8l-800 -436q-7 -3 -7 4z" />
<glyph unicode="?" horiz-adv-x="923" d="M57 997q0 89 22.5 163.5t69 134.5t127 94t187.5 34q193 0 301 -99t108 -243q0 -61 -12.5 -110.5t-30 -84t-55 -72t-69.5 -62.5t-91 -66q-73 -53 -93.5 -92.5t-20.5 -101.5v-70q0 -8 -8 -8h-136q-8 0 -8 8v70q0 101 38 159.5t161 145.5q99 69 130.5 126.5t31.5 161.5 q0 91 -68.5 149t-177.5 58q-68 0 -116.5 -22t-74.5 -63.5t-37.5 -92.5t-11.5 -117q0 -8 -8 -8h-149q-9 0 -9 8zM346 8v275q0 8 10 8h142q8 0 8 -8v-275q0 -8 -8 -8h-144q-8 0 -8 8z" />
<glyph unicode="@" horiz-adv-x="1710" d="M135 485q0 161 58 300.5t157 236.5t235 152t289 55q168 0 306 -57t227 -155t137.5 -224.5t48.5 -268.5q0 -187 -82.5 -311.5t-212.5 -124.5q-79 0 -130.5 43t-63.5 100q0 8 -4 0q-39 -70 -121.5 -121t-196.5 -51q-128 0 -200 72.5t-72 175.5q0 111 75.5 178t186.5 78 l281 29q8 0 8 8v33q0 77 -48.5 121.5t-121.5 44.5q-69 0 -113.5 -44t-50.5 -110q0 -8 -8 -8h-164q-10 0 -10 8q25 125 114 207t230 82q91 0 157.5 -30t103 -82t53 -113.5t16.5 -133.5v-274q0 -90 88 -90q59 0 102 68.5t43 226.5q0 166 -74 303t-207.5 217t-300.5 80 q-166 0 -302.5 -79.5t-215 -222t-78.5 -319.5q0 -275 169.5 -446.5t441.5 -171.5q104 0 184 24t172 80q7 3 12 -4l50 -76q2 -1 1 -6t-4 -6q-216 -135 -411 -135q-224 0 -396 94t-265 262.5t-93 384.5zM664 317q0 -59 41.5 -96t115.5 -37q111 0 175.5 74.5t64.5 173.5v33 q0 4 -4 4q-204 -19 -250 -27q-143 -22 -143 -125z" />
<glyph unicode="A" horiz-adv-x="1263" d="M6 3.5q-2 3.5 0 6.5l498 1374q3 9 10 9h219q7 0 10 -9l512 -1376q3 -8 -6 -8h-153q-6 0 -9 8l-159 430q-3 8 -10 8h-580q-7 0 -10 -8l-158 -430q-3 -8 -8 -8h-150q-4 0 -6 3.5zM385 600q-3 -10 8 -10h473q8 0 6 8l-245 659q0 1 -2 1t-2 -1z" />
<glyph unicode="B" horiz-adv-x="1261" d="M143 8v1376q0 9 9 9h452q118 0 205 -16.5t155 -54.5t103 -106.5t35 -166.5q0 -106 -67.5 -190t-190.5 -109q-2 0 -3 -2q1 -2 3 -3q146 -27 233.5 -110.5t87.5 -233.5q0 -211 -126 -306t-375 -95h-512q-9 0 -9 8zM303 152q0 -9 8 -9h367q175 0 250.5 54.5t75.5 201.5 q0 135 -99 204t-289 69h-305q-8 0 -8 -8v-512zM303 823q0 -8 8 -8h303q328 0 328 234q0 115 -75 157.5t-249 42.5h-307q-8 0 -8 -8v-418z" />
<glyph unicode="C" horiz-adv-x="1335" d="M111 578v245q0 101 20.5 188.5t65.5 164t112 131t166 85.5t221 31q103 0 190.5 -28t149.5 -76t106 -112t65.5 -136.5t21.5 -148.5q0 -9 -8 -9h-148q-8 0 -8 9q0 161 -102 259.5t-267 98.5q-213 0 -320.5 -124t-107.5 -363v-185q0 -235 110.5 -365t321.5 -130 q169 0 267 96t98 252q0 8 8 8h148q8 0 8 -8q0 -72 -21 -142.5t-65.5 -133.5t-106.5 -111t-150 -76.5t-190 -28.5q-151 0 -265 45.5t-183 128.5t-103 192t-34 243z" />
<glyph unicode="D" horiz-adv-x="1306" d="M139 8v1376q0 9 8 9h408q139 0 255.5 -38t203.5 -112t135.5 -189.5t48.5 -262.5v-191q0 -298 -164 -449t-479 -151h-408q-8 0 -8 8zM299 152q0 -9 8 -9h291q229 0 336.5 113.5t107.5 355.5v158q0 227 -126 353t-330 126h-279q-8 0 -8 -8v-1089z" />
<glyph unicode="E" horiz-adv-x="1191" d="M139 8v1376q0 9 8 9h895q9 0 9 -9v-127q0 -8 -9 -8h-735q-8 0 -8 -8v-436q0 -8 8 -8h664q8 0 8 -9v-124q0 -9 -8 -9h-664q-8 0 -8 -8v-495q0 -9 8 -9h774q9 0 9 -8v-127q0 -8 -9 -8h-934q-8 0 -8 8z" />
<glyph unicode="F" horiz-adv-x="1144" d="M139 8v1376q0 9 8 9h918q8 0 8 -9v-127q0 -8 -8 -8h-758q-8 0 -8 -8v-436q0 -8 8 -8h668q8 0 8 -9v-124q0 -9 -8 -9h-668q-8 0 -8 -8v-639q0 -8 -8 -8h-144q-8 0 -8 8z" />
<glyph unicode="G" horiz-adv-x="1351" d="M111 580v225q0 281 158 449.5t438 168.5q115 0 215.5 -36t169 -96.5t108 -142.5t39.5 -173q0 -8 -8 -8h-146q-10 0 -10 8q-5 129 -108.5 217t-259.5 88q-439 0 -439 -492v-188q0 -234 116.5 -360.5t328.5 -126.5q182 0 280.5 89.5t98.5 250.5v114q0 8 -9 8h-358 q-8 0 -8 9v123q0 10 8 10h516q8 0 8 -8v-197q0 -135 -41 -240t-114.5 -170.5t-169.5 -99t-211 -33.5q-279 0 -440.5 163.5t-161.5 447.5z" />
<glyph unicode="H" horiz-adv-x="1306" d="M139 8v1376q0 9 8 9h146q10 0 10 -9v-579q0 -8 8 -8h684q9 0 9 8v579q0 9 10 9h145q8 0 8 -9v-1376q0 -8 -8 -8h-145q-10 0 -10 8v639q0 8 -9 8h-684q-8 0 -8 -8v-639q0 -8 -10 -8h-146q-8 0 -8 8z" />
<glyph unicode="I" horiz-adv-x="444" d="M141 8v1376q0 9 9 9h145q8 0 8 -9v-1376q0 -8 -8 -8h-145q-9 0 -9 8z" />
<glyph unicode="J" horiz-adv-x="980" d="M47 365v51q0 8 8 8h140q8 0 8 -8v-29q0 -122 62 -198t181 -76q45 0 84 14.5t74 47.5t55.5 95t20.5 148v966q0 9 8 9h146q8 0 8 -9v-940q0 -123 -32 -216.5t-88.5 -148.5t-127 -82.5t-152.5 -27.5q-96 0 -172.5 32.5t-124.5 88t-73 126t-25 149.5z" />
<glyph unicode="K" horiz-adv-x="1251" d="M139 8v1376q0 9 8 9h146q8 0 8 -9v-741q0 -10 8 -2l686 743q9 9 13 9h174q17 0 6 -11l-506 -553q-7 -7 -2 -14l516 -809q3 -6 -4 -6h-170q-7 0 -12 8q-122 185 -269 422.5t-166 274.5q-1 3 -4 3.5t-4 -1.5l-260 -281q-6 -6 -6 -14v-404q0 -8 -8 -8h-146q-8 0 -8 8z" />
<glyph unicode="L" horiz-adv-x="974" d="M139 8v1376q0 9 8 9h144q8 0 8 -9l-2 -1232q0 -9 8 -9h656q6 0 6 -8v-127q0 -8 -9 -8h-811q-8 0 -8 8z" />
<glyph unicode="M" horiz-adv-x="1544" d="M139 8v1376q0 9 8 9h238q7 0 10 -9l375 -1136q2 -4 4 0l375 1136q3 9 10 9h238q8 0 8 -9v-1376q0 -8 -8 -8h-144q-8 0 -8 8v1071q0 99 4 140q0 8 -4 0l-411 -1211q-3 -8 -11 -8h-102q-7 0 -10 8l-412 1211q-4 8 -4 0q4 -36 4 -140v-1071q0 -8 -8 -8h-144q-8 0 -8 8z" />
<glyph unicode="N" horiz-adv-x="1314" d="M139 8v1376q0 9 8 9h162q4 0 8 -4l701 -1158q4 -8 4 0q-6 74 -6 404v749q0 9 8 9h143q9 0 9 -9v-1376q0 -8 -9 -8h-161q-5 0 -9 4l-700 1157q-4 8 -4 0q6 -45 6 -409v-744q0 -8 -8 -8h-144q-8 0 -8 8z" />
<glyph unicode="O" horiz-adv-x="1396" d="M111 565v269q0 133 49 245.5t130.5 186.5t187 115.5t220.5 41.5t220.5 -41.5t187.5 -115.5t131 -186.5t49 -245.5v-269q0 -128 -45 -239t-123.5 -189t-187 -123t-232.5 -45t-232.5 45t-186.5 123t-123 189t-45 239zM268 594q0 -119 34.5 -213t94.5 -151.5t136.5 -87 t164.5 -29.5t164.5 29.5t136.5 87t94.5 151.5t34.5 213v209q0 218 -122 347.5t-308 129.5t-308 -129.5t-122 -347.5v-209z" />
<glyph unicode="P" horiz-adv-x="1224" d="M139 8v1376q0 9 8 9h504q101 0 188.5 -24.5t158 -73.5t111 -131.5t40.5 -190.5q0 -218 -133 -329.5t-381 -111.5h-328q-8 0 -8 -8v-516q0 -8 -8 -8h-144q-8 0 -8 8zM299 684q0 -8 8 -8h332q182 0 265 68t83 229q0 136 -87.5 206t-235.5 70h-357q-8 0 -8 -8v-557z" />
<glyph unicode="Q" horiz-adv-x="1355" d="M113 522v357q-1 238 158.5 391t408.5 153q115 0 217 -37.5t179 -106t121.5 -172t45.5 -228.5v-357q0 -102 -31.5 -196.5t-87.5 -159.5q-3 -3 0 -6l166 -180q4 -4 2 -7.5t-6 -3.5h-176q-8 0 -14 6l-84 91l-1.5 1.5t-3.5 1.5t-6 -1q-79 -55 -150.5 -77t-170.5 -22 q-158 0 -286 67t-204 194t-77 292zM276 528q1 -85 25.5 -156t64.5 -118t92.5 -79.5t107 -47t110.5 -14.5q74 0 128 12.5t101 50.5q3 3 0 6l-198 215q-2 4 2 6h184q6 0 10 -4l113 -123q3 -3 6 0q35 36 49 94.5t14 157.5v340q0 101 -33 181.5t-90 130t-128.5 75t-153.5 25.5 q-79 0 -150.5 -26t-129 -75t-91.5 -129q-33 -79 -33 -176v-6v-340z" />
<glyph unicode="R" horiz-adv-x="1236" d="M139 8v1376q0 9 8 9h488q221 0 356 -99t135 -284q0 -128 -74 -219t-190 -115q-4 -1 0 -4q139 -27 213 -115.5t74 -237.5v-169q0 -88 20 -140q3 -10 -4 -10h-153q-5 0 -8 6q-15 19 -15 94v195q0 303 -393 303h-289q-8 0 -8 -8v-582q0 -8 -8 -8h-144q-8 0 -8 8zM299 750 q0 -9 8 -9h289q87 0 151.5 13.5t114.5 44t75.5 84.5t25.5 131q0 235 -316 235h-340q-8 0 -8 -8v-491z" />
<glyph unicode="S" horiz-adv-x="1171" d="M78 451q0 8 8 8h141q9 0 9 -8q0 -63 25 -122t72 -108t124.5 -78.5t173.5 -29.5q155 0 239 71t84 189q0 100 -58.5 164.5t-215.5 101.5q-64 16 -106.5 27t-96 26.5t-88 30t-74.5 34.5t-65 41t-50 49t-38.5 60t-22 72t-8.5 86q0 162 131 260t328 98q229 0 345 -112.5 t116 -300.5q0 -9 -9 -9h-135q-8 0 -8 9q0 128 -76.5 199t-232.5 71q-145 0 -223 -58.5t-78 -160.5q0 -27 6.5 -51t15 -42.5t28 -36.5t34.5 -30t46 -26t50.5 -22.5t60 -21t63 -18.5t71.5 -19t73 -20q197 -55 286 -146.5t89 -234.5q0 -83 -30.5 -158t-89 -135t-154.5 -95.5 t-217 -35.5q-243 0 -393 133.5t-150 348.5z" />
<glyph unicode="T" horiz-adv-x="997" d="M-2 1253v131q0 9 6 9h989q6 0 6 -9v-131q0 -8 -8 -8l-403 -2q-8 0 -8 -8v-1227q0 -8 -9 -8h-145q-8 0 -8 8v1227q0 8 -8 8l-404 2q-8 0 -8 8z" />
<glyph unicode="U" horiz-adv-x="1331" d="M133 475v909q0 9 8 9h144q8 0 8 -9l-2 -915q0 -78 21.5 -140.5t57 -102t85 -65.5t101.5 -37t110 -11q55 0 104.5 9.5t100 34.5t87 64t59.5 102.5t23 145.5l-2 915q0 9 9 9h143q8 0 8 -9v-909q0 -131 -44.5 -231t-121 -158.5t-169 -87.5t-197.5 -29q-116 0 -213 33.5 t-168.5 96t-111.5 159.5t-40 217z" />
<glyph unicode="V" horiz-adv-x="1210" d="M4 1384q-4 9 6 9h160q7 0 10 -9l420 -1228q4 -8 8 0l424 1228q3 9 10 9h158q10 0 6 -9l-506 -1376q-3 -8 -10 -8h-172q-7 0 -10 8z" />
<glyph unicode="W" horiz-adv-x="1697" d="M6 1386q-2 7 6 7h156q6 0 10 -7l287 -1228q0 -3 2 -3t2 3l289 1226q3 9 10 9h164q7 0 10 -9l289 -1224q2 -4 4 0l291 1224q3 9 10 9h150q8 0 8 -7l-357 -1378q-3 -8 -8 -8l-194 -2q-6 0 -9 8l-272 1170q-1 3 -2.5 4t-3 0t-2.5 -4l-277 -1168q-3 -8 -8 -8h-192q-6 0 -9 8z " />
<glyph unicode="X" horiz-adv-x="1163" d="M6 8l488 709q2 5 0 10l-447 657q-3 3 -1.5 6t5.5 3h164q7 0 10 -7l353 -538q4 -8 8 0l352 538q4 7 10 7h164q3 0 5 -3t-1 -6l-442 -657q-2 -5 0 -10l485 -709q1 -1 1.5 -3t-0.5 -3.5t-5 -1.5h-170q-7 0 -10 6l-389 584q-4 8 -8 0l-390 -584q-3 -6 -10 -6h-168q-10 0 -4 8 z" />
<glyph unicode="Y" horiz-adv-x="1196" d="M-3.5 1390q1.5 3 5.5 3h174q6 0 10 -7l410 -653q4 -8 8 0l408 653q4 7 10 7h174q3 0 5 -3t-1 -6l-518 -792q-4 -6 -4 -14v-570q0 -8 -8 -8h-142q-8 0 -8 8v570q0 8 -4 14l-518 792q-3 3 -1.5 6z" />
<glyph unicode="Z" horiz-adv-x="1099" d="M72 8v150q0 5 6 14l749 1073q2 4 -2 4h-731q-8 0 -8 8v127q0 9 8 9h887q8 0 8 -9v-149q0 -5 -6 -14l-750 -1071q-2 -2 -1.5 -4.5t4.5 -2.5h784q8 0 8 -8v-127q0 -8 -8 -8h-940q-8 0 -8 8z" />
<glyph unicode="[" horiz-adv-x="538" d="M92 -299v1753q0 8 8 8h318q8 0 8 -8v-96q0 -8 -8 -8l-158 4q-8 0 -8 -8v-1536q0 -9 8 -9l158 4q8 0 8 -8v-96q0 -8 -8 -8h-318q-8 0 -8 8z" />
<glyph unicode="\" horiz-adv-x="714" d="M-29 1386q-3 7 4 7h138q5 0 8 -7l622 -1380q3 -6 -4 -6h-137q-5 0 -8 6z" />
<glyph unicode="]" horiz-adv-x="538" d="M113 -203q0 8 8 8l158 -4q8 0 8 9v1536q0 8 -8 8l-158 -4q-8 0 -8 8v96q0 8 8 8h317q8 0 8 -8v-1753q0 -8 -8 -8h-317q-8 0 -8 8v96z" />
<glyph unicode="^" horiz-adv-x="1296" d="M156 649l391 735q6 9 12 9h195q6 0 12 -9l373 -735q5 -10 -4 -10h-164q-12 0 -17 10l-295 590q-6 12 -12 0l-305 -590q-4 -10 -16 -10h-164q-11 0 -6 10z" />
<glyph unicode="_" horiz-adv-x="1081" d="M-8 -143q0 8 8 8h1081q9 0 9 -8v-129q0 -9 -9 -9h-1081q-8 0 -8 9v129z" />
<glyph unicode="`" horiz-adv-x="675" d="M195 1415q-4 8 4 8h155q8 0 11 -8l104 -276q2 -9 -6 -9h-127q-6 0 -10 9z" />
<glyph unicode="a" horiz-adv-x="1036" d="M80 266q0 148 92.5 225.5t261.5 100.5q323 46 326 47q6 3 6 8v35q0 92 -66.5 138t-175.5 46q-112 0 -170 -44t-78 -128q-3 -8 -8 -8h-149q-5 0 -6.5 1t-1.5 7q32 148 138 230t286 82q187 0 288 -98t101 -283v-316q0 -87 15.5 -174t29.5 -127q2 -8 -8 -8h-148q-4 0 -6 6 q-28 67 -39 166q0 3 -2 3t-4 -3q-44 -82 -138.5 -142.5t-232.5 -60.5q-141 0 -226 82t-85 215zM238 272q0 -70 47 -116.5t135 -46.5q135 0 240.5 91t105.5 232v78q0 6 -2 7q-1 0 -4 -1q-24 -5 -299 -51q-123 -21 -173 -67t-50 -126z" />
<glyph unicode="b" horiz-adv-x="1073" d="M123 8v1376q0 9 8 9h143q9 0 9 -9v-561q1 -4 4 0q32 74 112 128.5t185 54.5q182 0 295.5 -119t113.5 -328v-172q0 -189 -103 -303.5t-261 -114.5q-67 0 -128 19.5t-103 49.5t-70.5 61t-42.5 61q-4 8 -4 0l-31 -152q0 -8 -8 -8h-111q-8 0 -8 8zM283 522q0 -167 78 -290 t202 -123q268 0 268 305v123q0 178 -71 253.5t-197 75.5q-125 0 -202.5 -102.5t-77.5 -241.5z" />
<glyph unicode="c" horiz-adv-x="1026" d="M76 414v145q0 91 31 171.5t89 142t147.5 97.5t199.5 36q170 0 290.5 -100t120.5 -253q0 -8 -8 -8h-137q-8 0 -8 8q0 95 -79 159.5t-181 64.5q-133 0 -218 -87.5t-85 -244.5v-115q0 -159 84.5 -245.5t218.5 -86.5q119 0 191.5 64t72.5 151q0 9 8 9h133q8 0 8 -9 q-4 -66 -32.5 -126.5t-78.5 -109.5t-128.5 -78.5t-173.5 -29.5q-217 0 -341 125t-124 320z" />
<glyph unicode="d" horiz-adv-x="1073" d="M80 387v172q0 209 113.5 328t295.5 119q106 0 185.5 -52.5t111.5 -126.5q3 -4 5 0v557q0 9 8 9h143q8 0 8 -9v-1376q0 -8 -8 -8h-113q-8 0 -8 8l-30 152q0 3 -1.5 3t-3.5 -3q-46 -81 -129.5 -136t-199.5 -55q-184 0 -280.5 113.5t-96.5 304.5zM242 414q0 -305 268 -305 q129 0 205 112.5t76 300.5q0 139 -78 241.5t-203 102.5q-126 0 -197 -75.5t-71 -253.5v-123z" />
<glyph unicode="e" horiz-adv-x="1077" d="M76 449v100q0 195 124 326t332 131q216 0 342.5 -127.5t126.5 -323.5v-113q0 -8 -8 -8h-755q-9 0 -9 -8v-10q0 -135 91 -221t253 -86q205 0 261 172q3 8 8 8h143q8 0 8 -8q-32 -141 -148.5 -226.5t-273.5 -85.5q-234 0 -364.5 135t-130.5 345zM229 575q0 -8 9 -8h598 q8 0 8 8q0 135 -85 213t-227 78q-135 0 -219 -79t-84 -212z" />
<glyph unicode="f" horiz-adv-x="552" d="M10 844v123q0 8 8 8h154q8 0 8 8v236q0 94 54.5 149t148.5 55q45 0 92.5 -17.5t75.5 -43.5q4 -4 4 -8v-127q0 -8 -6 -2q-65 65 -135 65q-36 0 -56 -20t-20 -58v-229q0 -8 8 -8h219q8 0 8 -8v-123q0 -8 -8 -8h-219q-8 0 -8 -9v-819q0 -8 -8 -8h-142q-8 0 -8 8v819 q0 9 -8 9h-154q-8 0 -8 8z" />
<glyph unicode="g" horiz-adv-x="1013" d="M84 -113q0 72 38 126t97 83q4 2 0 6q-25 31 -34 56.5t-9 62.5q0 36 25 75t67 60q6 3 0 6q-77 42 -120.5 112.5t-43.5 160.5v61q0 142 111 226t281 84q150 0 252 -76q6 -3 8 -2q28 17 75 32t95 15h45q8 0 8 -8v-127q0 -9 -8 -9h-51q-41 0 -64 -6q-8 -3 -8 -6q0 -4 2 -6 q33 -53 33 -117v-55q0 -147 -114.5 -240.5t-313.5 -93.5q-59 0 -92 -23t-33 -57q0 -26 20 -45.5t58 -19.5h262q299 0 299 -230q0 -148 -130.5 -255t-351.5 -107q-175 0 -289 81t-114 212v24zM244 -113v-14q0 -82 64.5 -135t178.5 -53q162 0 244 59t82 145q0 69 -37.5 101.5 t-126.5 32.5h-231q-64 0 -94 12q-38 -9 -59 -48.5t-21 -99.5zM260 643q0 -91 51.5 -145t159.5 -54q136 0 196 55t60 144v47q0 82 -68.5 129t-162.5 47q-103 0 -169.5 -46t-66.5 -130v-47z" />
<glyph unicode="h" horiz-adv-x="1073" d="M123 8v1376q0 9 8 9h145q9 0 9 -9v-581q0 -12 6 0q58 96 144.5 149.5t191.5 53.5q354 0 354 -394v-604q0 -8 -8 -8h-146q-8 0 -8 8v643q0 62 -17.5 106t-48.5 66.5t-66 32.5t-77 10q-145 0 -235 -108t-90 -264v-486q0 -8 -9 -8h-145q-8 0 -8 8z" />
<glyph unicode="i" horiz-adv-x="405" d="M123 8v959q0 8 8 8h143q9 0 9 -8v-959q0 -8 -9 -8h-143q-8 0 -8 8zM123 1223v161q0 9 8 9h143q9 0 9 -9v-161q0 -9 -9 -9h-143q-8 0 -8 9z" />
<glyph unicode="j" horiz-adv-x="485" d="M-39 -203q0 5 2.5 5.5t5.5 -3.5q16 -25 48 -43t71 -18q59 0 88 37.5t29 130.5v1061q0 8 8 8h143q9 0 9 -10v-1012q0 -181 -61 -270t-189 -89q-105 0 -150 56q-4 4 -4 12v135zM205 1223v161q0 9 8 9h143q9 0 9 -9v-161q0 -9 -9 -9h-143q-8 0 -8 9z" />
<glyph unicode="k" horiz-adv-x="972" d="M123 8v1376q0 9 8 9h143q9 0 9 -9v-860q0 -12 10 -2l473 447q6 6 12 6h187q10 0 2 -8l-396 -373q-4 -4 -2 -8q104 -149 394 -580q3 -6 -2 -6h-156q-7 0 -10 6l-334 488q-3 3 -6 0l-164 -152q-8 -5 -8 -16v-318q0 -8 -9 -8h-143q-8 0 -8 8z" />
<glyph unicode="l" horiz-adv-x="403" d="M123 8v1376q0 9 8 9h141q9 0 9 -9v-1376q0 -8 -9 -8h-141q-8 0 -8 8z" />
<glyph unicode="m" horiz-adv-x="1531" d="M123 8v959q0 8 8 8h105q5 0 8 -8l32 -160q0 -4 3 -4t4 4q38 85 112.5 142t182.5 57q101 0 163.5 -56.5t81.5 -142.5q0 -5 2.5 -5t3.5 5q54 105 128 152t173 47q131 0 207 -94.5t76 -231.5v-672q0 -8 -8 -8h-143q-9 0 -9 8v658q0 200 -166 200q-102 0 -171.5 -79 t-69.5 -187v-592q0 -8 -8 -8h-144q-8 0 -8 8v656q0 98 -42 150t-124 52q-90 0 -163.5 -96.5t-73.5 -222.5v-539q0 -8 -9 -8h-143q-8 0 -8 8z" />
<glyph unicode="n" horiz-adv-x="1071" d="M123 8v959q0 8 8 8h115q5 0 8 -8l33 -168q0 -9 6 0q49 91 136 149t198 58q158 0 241.5 -90.5t83.5 -256.5v-651q0 -8 -8 -8h-145q-8 0 -8 8v619q0 239 -201 239q-94 0 -166 -53.5t-106.5 -133.5t-34.5 -171v-500q0 -8 -9 -8h-143q-8 0 -8 8z" />
<glyph unicode="o" d="M74 432v107q0 220 133 343.5t346 123.5q215 0 346 -120t131 -347v-107q0 -201 -132 -332t-345 -131q-215 0 -347 129t-132 334zM231 449q0 -162 90 -251t232 -89q139 0 229 86.5t90 250.5v74q0 171 -90.5 258.5t-228.5 87.5q-144 0 -233 -88t-89 -260v-69z" />
<glyph unicode="p" horiz-adv-x="1120" d="M123 -381v1348q0 8 8 8h115q5 0 8 -8l33 -168q0 -9 6 0q49 91 136 149t198 58q191 0 302 -116t111 -325v-184q0 -180 -112 -296t-287 -116q-118 0 -214.5 60t-137.5 151q-2 6 -5 3l-1 -3v-561q0 -8 -9 -8h-143q-8 0 -8 8zM283 438q0 -122 97.5 -223.5t233.5 -101.5 q126 0 195.5 68t69.5 235v119q0 94 -19 160t-55.5 102.5t-82 52.5t-104.5 16q-138 0 -236.5 -93.5t-98.5 -231.5v-103z" />
<glyph unicode="q" horiz-adv-x="1120" d="M80 381v184q0 208 111.5 324.5t302.5 116.5q111 0 197.5 -58t135.5 -149q7 -11 7 0l32 168q3 8 8 8h115q8 0 8 -8v-1348q0 -8 -8 -8h-143q-8 0 -8 8v555q0 3 -3 4t-4 -2q-45 -91 -141 -149t-221 -58q-168 0 -278.5 116.5t-110.5 295.5zM242 416q0 -87 19 -147.5 t55.5 -93.5t82.5 -47.5t107 -14.5q137 0 234.5 96t97.5 217v102q0 138 -100.5 238t-235.5 100q-123 0 -191.5 -74.5t-68.5 -256.5v-119z" />
<glyph unicode="r" horiz-adv-x="643" d="M125 8v959q0 8 8 8h115q5 0 8 -8l33 -168q0 -5 4 -4q1 1 2 4q35 98 101.5 152.5t146.5 54.5q66 0 106 -23q4 -2 4 -10v-133q0 -9 -6 -6q-43 24 -110 24q-30 0 -62.5 -13.5t-67 -47.5t-61 -84.5t-44 -132.5t-17.5 -183v-389q0 -8 -9 -8h-143q-8 0 -8 8z" />
<glyph unicode="s" horiz-adv-x="974" d="M76 299q0 8 8 8h145q9 0 9 -8q0 -63 78 -126.5t196 -63.5q117 0 174 42.5t57 114.5q0 31 -7.5 50.5t-32 40.5t-75.5 37t-132 30q-207 35 -300.5 103t-93.5 202q0 127 107 202t274 75q91 0 165 -28.5t118.5 -75t68 -101.5t23.5 -111q0 -8 -8 -8h-135q-8 0 -8 8 q0 27 -11.5 55.5t-35.5 56.5t-70 46t-107 18q-99 0 -160 -36.5t-61 -92.5q0 -69 59 -103.5t244 -74.5q68 -15 113 -27.5t90.5 -34.5t71 -49.5t41.5 -69.5t16 -97q0 -137 -103.5 -224.5t-281.5 -87.5q-107 0 -193 32.5t-136.5 83.5t-77.5 106t-29 108z" />
<glyph unicode="t" horiz-adv-x="534" d="M10 850v117q0 8 8 8h132q8 0 8 8v299q0 8 4 10l137 101q8 4 8 -4v-406q0 -8 8 -8h187q8 0 8 -8v-117q0 -8 -8 -8h-187q-8 0 -8 -8v-592q0 -129 90 -129q12 0 23 3t19 7t18 12t14.5 12.5l15 15l13.5 13.5t5.5 1.5t2.5 -5.5v-121q0 -6 -4 -10l-10 -10q-9 -10 -13 -13.5 t-15.5 -13t-21.5 -14t-24.5 -10.5t-31.5 -8.5t-36 -2.5q-87 0 -140.5 65t-53.5 195v605q0 8 -8 8h-132q-8 0 -8 8z" />
<glyph unicode="u" horiz-adv-x="1101" d="M113 369v598q0 8 8 8h143q8 0 8 -8v-615q0 -243 222 -243q151 0 234 113t83 306v439q0 8 8 8h144q8 0 8 -8v-713q0 -147 26 -244q3 -10 -8 -10h-141q-5 0 -8 8l-33 168q0 9 -6 0q-49 -91 -136.5 -149t-199.5 -58q-73 0 -134.5 22.5t-111.5 68.5t-78 125t-28 184z" />
<glyph unicode="v" horiz-adv-x="1001" d="M8 967q-4 8 4 8h152q9 0 12 -8l322 -834q4 -9 8 0l319 834q3 8 13 8h151q7 0 4 -6l-385 -961q-3 -8 -10 -8h-192q-10 0 -13 8z" />
<glyph unicode="w" horiz-adv-x="1429" d="M12 967q-4 8 4 8h146q7 0 10 -8l242 -830h4l203 832q3 6 10 6h168q7 0 10 -6l203 -832q0 -3 2 -3t2 3l241 832q2 6 9 6h147q7 0 4 -6l-293 -961q-3 -8 -12 -8h-194q-8 0 -11 8l-188 750q-1 3 -2.5 4t-3 0t-2.5 -4l-189 -750q-3 -8 -10 -8h-195q-9 0 -12 8z" />
<glyph unicode="x" horiz-adv-x="962" d="M14 8l371 481q1 1 1 4t-1 5l-352 469q-3 3 -2 5.5t6 2.5h170q7 0 12 -8l258 -365q3 -5 8 0l258 365q5 8 13 8h170q9 0 4 -8l-355 -469q-1 -2 -1 -5t1 -4l369 -481q1 -1 1.5 -3t-0.5 -3.5t-5 -1.5h-174q-7 0 -12 8l-269 377q-4 4 -8 0l-270 -377q-5 -8 -12 -8h-177 q-9 0 -4 8z" />
<glyph unicode="y" horiz-adv-x="907" d="M7 970q-1 2 0 3.5t5 1.5h166q9 0 12 -8l265 -674q1 -3 2.5 -4t3 0t2.5 4l258 674q3 8 12 8h162q4 0 4 -8l-514 -1207q-37 -84 -79.5 -125t-119.5 -41q-64 0 -108 44q-4 4 -4 12v147q0 3 3 4t5 -2q35 -63 86 -63q49 0 82 76l125 297q3 5 0 10l-367 848z" />
<glyph unicode="z" horiz-adv-x="874" d="M51 8l2 96q0 9 6 15l549 710q7 7 -2 7h-534q-9 0 -9 8v123q0 8 9 8h733q8 0 8 -8v-86q0 -6 -6 -15l-559 -721q-6 -6 2 -6h565q8 0 8 -8v-123q0 -8 -8 -8h-756q-8 0 -8 8z" />
<glyph unicode="{" horiz-adv-x="608" d="M41 547v61q0 8 8 8l27 2q42 3 70.5 29.5t39.5 59.5t11 69v486q0 103 69 151.5t176 48.5h45q9 0 9 -8v-96q0 -8 -9 -8h-28q-31 0 -49.5 -3t-35 -19.5t-16.5 -47.5v-514q0 -66 -31 -115.5t-85 -68.5q-4 -2 -4 -5t4 -4q54 -19 85 -68.5t31 -115.5v-514q0 -31 16.5 -47.5 t35 -19.5t49.5 -3h28q9 0 9 -8v-96q0 -8 -9 -8h-45q-107 0 -176 49t-69 152v485q0 36 -11 69t-39.5 59.5t-70.5 29.5l-27 2q-8 0 -8 8z" />
<glyph unicode="|" horiz-adv-x="417" d="M133 -326v1719h150v-1719h-150z" />
<glyph unicode="}" horiz-adv-x="608" d="M113 -203q0 8 8 8h29q18 0 29.5 1t26.5 5t23.5 11t14.5 20.5t6 32.5v514q0 66 31.5 115.5t85.5 68.5q5 1 5 4t-5 5q-54 19 -85.5 68.5t-31.5 115.5v514q0 19 -6 32.5t-14.5 20.5t-23.5 11t-26.5 5t-29.5 1h-29q-8 0 -8 8v96q0 8 8 8h45q107 0 176.5 -48.5t69.5 -151.5 v-486q0 -36 10.5 -69t39 -59.5t70.5 -29.5l27 -2q8 0 8 -8v-61q0 -8 -8 -8l-27 -2q-42 -3 -70.5 -29.5t-39 -59.5t-10.5 -69v-485q0 -103 -69.5 -152t-176.5 -49h-45q-8 0 -8 8v96z" />
<glyph unicode="~" horiz-adv-x="1226" d="M106 578q-3 7 0 10q120 133 283 133q70 0 138 -21t112.5 -45.5t101 -45.5t107.5 -21q114 0 190 117q3 6 9 0l73 -113q4 -4 0 -8q-60 -76 -124.5 -114t-153.5 -38q-57 0 -118 21t-106.5 46.5t-107.5 46.5t-119 21q-65 0 -112.5 -25.5t-92.5 -74.5q-4 -4 -8 0z" />
<glyph unicode="&#xa1;" horiz-adv-x="475" d="M154 94v-504q0 -8 8 -8h153q7 0 7 8v502q0 132 -13 451q0 6 -4 6h-135q-4 0 -4 -6q-12 -294 -12 -449zM158 692v275q0 8 8 8h143q8 0 8 -8v-275q0 -8 -8 -8h-141q-10 0 -10 8z" />
<glyph unicode="&#xa2;" horiz-adv-x="1026" d="M76 414v145q0 170 103.5 294t287.5 148q6 0 6 5v135q0 8 8 8h121q8 0 8 -8v-135q0 -5 6 -5q145 -22 241.5 -118.5t96.5 -229.5q0 -8 -8 -8h-137q-8 0 -8 8q-6 95 -57 150.5t-130 66.5q-4 0 -4 -4v-755q0 -5 6 -5q82 12 132 64t57 143q0 9 8 9h133q8 0 8 -9 q-8 -124 -97 -220.5t-241 -117.5q-6 0 -6 -8v-145q0 -8 -8 -8h-121q-8 0 -8 8v145q0 6 -6 6q-186 21 -288.5 142t-102.5 299zM238 430q0 -135 62.5 -218t166.5 -106q6 0 6 5v755q0 4 -4 4q-107 -23 -169 -104t-62 -221v-115z" />
<glyph unicode="&#xa3;" horiz-adv-x="1083" d="M92 8v127q0 8 8 8h27q38 0 65 9.5t45.5 32.5t29.5 50.5t16.5 74t7.5 92.5t2 116v103q0 12 -12 12h-160q-8 0 -8 8v127q0 8 8 8h166q6 0 6 6v242q0 188 94.5 293.5t269.5 105.5q166 0 260.5 -93.5t94.5 -239.5v-58q0 -8 -8 -8h-142q-8 0 -8 8v58q0 188 -195 188 q-117 0 -162.5 -63.5t-45.5 -233.5v-199q0 -6 6 -6h395q8 0 8 -8v-127q0 -8 -8 -8h-393q-8 0 -8 -12v-172v-33v-37.5t-0.5 -36.5t-2.5 -39.5t-4.5 -36t-7.5 -36t-11 -30.5t-15.5 -27.5t-20.5 -20.5q-9 -9 2 -9h664q8 0 8 -8v-127q0 -8 -8 -8h-955q-8 0 -8 8z" />
<glyph unicode="&#xa5;" horiz-adv-x="1208" d="M2.5 1390q1.5 3 5.5 3h174q8 0 11 -7l409 -653q2 -3 3 -4t2 0t3 4l408 653q4 7 10 7h174q3 0 5 -3t-1 -6l-458 -702h202q11 0 11 -8v-125q0 -8 -9 -8h-260q-8 0 -8 -9v-98q0 -8 8 -8h258q11 0 11 -8v-125q0 -8 -9 -8h-260q-8 0 -8 -9v-268q0 -8 -8 -8h-141q-9 0 -9 8v268 q0 9 -8 9h-252q-8 0 -8 8v125q0 8 10 8h250q8 0 8 8v98q0 9 -8 9h-252q-8 0 -8 8v125q0 8 10 8h195l-459 702q-3 3 -1.5 6z" />
<glyph unicode="&#xa6;" horiz-adv-x="452" d="M154 -315v643q0 8 8 8h129q8 0 8 -8v-643q0 -9 -8 -9h-129q-8 0 -8 9zM154 741v643q0 9 8 9h129q8 0 8 -9v-643q0 -8 -8 -8h-129q-8 0 -8 8z" />
<glyph unicode="&#xa7;" horiz-adv-x="1069" d="M98 674q0 51 15 92t44 70t55 47t62 37q7 3 2 8q-19 15 -29.5 24.5t-29.5 31.5t-29.5 42.5t-19 52.5t-8.5 68q0 68 35 122.5t93.5 87t127.5 49.5t143 17q168 0 277 -75.5t127 -217.5q0 -8 -7 -8h-139q-12 0 -16 13q-26 157 -236 157q-106 0 -173.5 -37.5t-67.5 -103.5 q0 -35 17.5 -63.5t57.5 -53t66 -37t82 -34.5q8 -3 12 -5l150 -61q50 -20 82 -36t69.5 -43t59 -57.5t36.5 -76t15 -102.5q0 -66 -35.5 -133.5t-104.5 -106.5q-7 -4 -2 -6q109 -75 109 -209q0 -136 -120.5 -217.5t-293.5 -81.5q-163 0 -280 78t-135 217q0 8 6 8h143q9 0 12 -8 q46 -162 258 -162q129 0 189.5 44.5t60.5 121.5q0 53 -34.5 84.5t-108.5 58.5l-248 90q-68 25 -115.5 49.5t-89.5 60.5t-63 87t-21 117zM262 674q0 -64 39.5 -106.5t147.5 -78.5l231 -79q62 17 94.5 60.5t32.5 104.5t-32.5 105t-117.5 82q-62 27 -100 43t-50.5 20.5 t-30.5 10.5t-38 14q-176 -26 -176 -176z" />
<glyph unicode="&#xa8;" horiz-adv-x="1140" d="M328 1176v241q0 6 6 6h141q6 0 6 -6v-241q0 -7 -6 -7h-141q-6 0 -6 7zM659 1176v241q0 6 7 6h141q6 0 6 -6v-241q0 -7 -6 -7h-141q-7 0 -7 7z" />
<glyph unicode="&#xa9;" horiz-adv-x="1603" d="M72 696q0 151 55 284.5t150 229.5t229 151.5t285 55.5q202 0 366.5 -94.5t258 -260t93.5 -366.5t-93.5 -366.5t-258 -260t-366.5 -94.5q-151 0 -285 55.5t-229 151.5t-150 229.5t-55 284.5zM207 696q0 -161 76.5 -297t211 -215.5t296.5 -79.5q121 0 229 47t185.5 126.5 t123 189t45.5 229.5t-45.5 229.5t-123 189t-185.5 126.5t-229 47q-162 0 -296.5 -79.5t-211 -215.5t-76.5 -297zM381 696q0 125 59.5 227t157.5 157t211 55q120 0 207 -57t137 -134q4 -4 0 -12l-119 -86q-7 -7 -10 2q-34 66 -92 105.5t-131 39.5q-111 0 -191 -85.5 t-80 -213.5q0 -129 79 -212t192 -83q156 0 229 138q2 5 8 2l115 -62q3 -4 2 -8q-31 -79 -124.5 -146t-221.5 -67q-182 0 -305 123.5t-123 316.5z" />
<glyph unicode="&#xaa;" horiz-adv-x="751" d="M66 956q0 87 62 135t153 56l219 29q6 0 6 6v26q0 105 -135 105q-123 0 -131 -96q0 -7 -9 -7h-131q-8 0 -8 7q19 96 90 151t187 55q264 0 264 -262v-209q0 -28 12.5 -44.5t28.5 -16.5q6 0 6 -8v-82q0 -8 -6 -8q-53 0 -86 24.5t-43 63.5q-2 4 -6 0q-27 -47 -94.5 -79 t-161.5 -32q-103 0 -160 53t-57 133zM188 958q0 -41 32.5 -65.5t92.5 -24.5q90 0 141.5 55.5t51.5 133.5v16q0 4 -4 4q-135 -17 -193 -26q-63 -9 -92 -30t-29 -63z" />
<glyph unicode="&#xab;" horiz-adv-x="868" d="M51 569v43q0 7 6 13l371 327q6 0 6 -4v-178q0 -6 -6 -12l-192 -164q-3 -3 -3 -4q1 -2 3 -2l190 -154q8 -8 8 -14v-172q0 -6 -4 -6q-2 0 -4 2l-369 315q-6 3 -6 10zM434 569v43q0 7 6 13l371 327q6 0 6 -4v-178q0 -6 -6 -12l-193 -164q-2 -2 -2 -4t2 -2l191 -154 q8 -8 8 -14v-172q0 -6 -4 -6q-2 0 -4 2l-369 315q-6 3 -6 10z" />
<glyph unicode="&#xac;" horiz-adv-x="1097" d="M51 795v127q0 8 8 8h918q8 0 8 -8v-545q0 -12 -12 -12h-135q-13 0 -13 12v401q0 8 -8 8h-758q-8 0 -8 9z" />
<glyph unicode="&#xad;" horiz-adv-x="808" d="M113 522v129q0 8 8 8h567q8 0 8 -8v-129q0 -8 -8 -8h-567q-8 0 -8 8z" />
<glyph unicode="&#xae;" horiz-adv-x="1603" d="M72 696q0 151 55 284.5t150 229.5t229 151.5t285 55.5q202 0 366.5 -94.5t258 -260t93.5 -366.5t-93.5 -366.5t-258 -260t-366.5 -94.5q-151 0 -285 55.5t-229 151.5t-150 229.5t-55 284.5zM207 696q0 -161 76.5 -297t211 -215.5t296.5 -79.5q121 0 229 47t185.5 126.5 t123 189t45.5 229.5t-45.5 229.5t-123 189t-185.5 126.5t-229 47q-162 0 -296.5 -79.5t-211 -215.5t-76.5 -297zM496 283q0 -7 2 -7h139q4 0 4 7v348q0 4 8 4h201q80 0 118 -40.5t38 -127.5v-98q0 -69 14 -90q3 -3 4 -3h145q5 1 2 7q-18 27 -18 110v115q0 81 -41.5 130.5 t-114.5 63.5q-3 0 -3 3t3 4q70 21 105 74.5t35 123.5q0 98 -72.5 162t-237.5 64h-329q-2 0 -2 -5v-845zM641 770v227q0 7 8 7h195q66 0 106.5 -31.5t40.5 -81.5q0 -54 -44.5 -89.5t-110.5 -35.5h-187q-8 0 -8 4z" />
<glyph unicode="&#xaf;" horiz-adv-x="1024" d="M213 1255v129q0 9 8 9h582q8 0 8 -9v-129q0 -8 -8 -8h-582q-8 0 -8 8z" />
<glyph unicode="&#xb0;" horiz-adv-x="727" d="M61 1118q0 146 88 225.5t216 79.5q80 0 146.5 -32t110.5 -103t44 -170q0 -138 -85.5 -225.5t-215.5 -87.5q-136 0 -220 84t-84 229zM193 1106q0 -84 48 -132t124 -48q71 0 120.5 48.5t49.5 131.5v31q0 73 -49.5 120.5t-120.5 47.5q-72 0 -122 -48t-50 -120v-31z" />
<glyph unicode="&#xb1;" horiz-adv-x="1073" d="M102 8v129q0 8 9 8h852q8 0 8 -8v-129q0 -8 -8 -8h-852q-9 0 -9 8zM102 651v129q0 8 9 8h346q8 0 8 9v325q0 8 8 8h129q8 0 8 -8v-325q0 -9 8 -9h345q8 0 8 -8v-129q0 -8 -8 -8h-345q-8 0 -8 -8v-352q0 -9 -8 -9h-129q-8 0 -8 9v352q0 8 -8 8h-346q-9 0 -9 8z" />
<glyph unicode="&#xb2;" horiz-adv-x="757" d="M72 471v143q0 48 13 88.5t29.5 66.5t51.5 55t59 44t74 44t74 44q100 63 122 83q43 40 49 106q1 16 1 37q0 67 -38.5 101t-111.5 34h-18q-75 0 -120.5 -42t-45.5 -118v-41q0 -8 -8 -8h-121q-8 0 -8 8v37q0 120 77.5 195t215.5 75h43q125 0 197.5 -63.5t72.5 -183.5 q0 -42 -4.5 -73.5t-18.5 -60t-31 -49.5t-51 -47t-68 -47.5t-93 -56.5q-120 -70 -146 -92q-50 -42 -56 -104q-1 -11 -1 -25v-43q0 -9 8 -9h459q8 0 8 -8v-90q0 -8 -8 -8h-598q-8 0 -8 8z" />
<glyph unicode="&#xb3;" horiz-adv-x="819" d="M72 680v29q0 8 8 8h115q8 0 8 -8v-15q0 -64 51 -104.5t141 -40.5q195 0 195 176v33q0 44 -20 76.5t-55 50t-75 25.5t-86 8h-59q-8 0 -8 8v96q0 8 8 8h61q37 0 69.5 7t62.5 23.5t47.5 48t17.5 75.5q0 68 -42.5 100.5t-113.5 32.5q-151 0 -151 -123q0 -8 -8 -8h-113 q-8 0 -8 8v25q0 95 80 149.5t200 54.5q133 0 213 -60t80 -179q0 -76 -51 -132t-117 -75v-2q36 -7 67.5 -20t65 -37t53 -65t19.5 -95v-35q0 -127 -95 -204t-239 -77q-135 0 -228 65.5t-93 172.5z" />
<glyph unicode="&#xb4;" horiz-adv-x="974" d="M365 1139l104 276q3 8 10 8h156q8 0 4 -8l-131 -276q-4 -9 -10 -9h-127q-8 0 -6 9z" />
<glyph unicode="&#xb5;" horiz-adv-x="1044" d="M80 -252v1219q0 8 8 8h139q9 0 9 -8v-580q0 -147 58 -210.5t150 -63.5q80 0 143 32.5t99.5 85t55 113t18.5 123.5v500q0 8 8 8h145q9 0 9 -8v-713q0 -147 26 -244q3 -10 -8 -10h-137q-5 0 -8 8l-33 168q0 3 -4 2l-2 -2q-49 -91 -136.5 -149t-199.5 -58q-57 0 -105 22 t-75 58q-4 4 -4 0v-301q0 -8 -9 -8h-139q-8 0 -8 8z" />
<glyph unicode="&#xb6;" horiz-adv-x="1107" d="M70 967q0 96 27 178t71.5 135.5t100 83t112.5 29.5h698q8 0 8 -9v-127q0 -8 -8 -8h-82q-6 0 -6 -8v-1622q0 -8 -8 -8h-147q-7 0 -7 8v1622q0 8 -6 8h-272q-6 0 -6 -8v-1622q0 -8 -6 -8h-146q-8 0 -8 8v913q0 9 -6 9h-25q-48 0 -98 30.5t-91.5 83.5t-68 135.5t-26.5 176.5 z" />
<glyph unicode="&#xb7;" horiz-adv-x="759" d="M297 518v187h166v-187h-166z" />
<glyph unicode="&#xb8;" horiz-adv-x="1705" d="M549 -295q0 8 8 8h107q8 0 8 -8q0 -76 94 -76q52 0 69 25t17 78q0 52 -23.5 74t-72.5 22q-55 0 -84 -29l-4 -4h-105q-8 0 -8 4q2 2 2 4l66 197h133l-37 -98q32 14 69 14q193 0 193 -166q0 -101 -54.5 -154t-162.5 -53q-111 0 -163 43t-52 119z" />
<glyph unicode="&#xb9;" horiz-adv-x="638" d="M123 1210v97q0 5 6 8l268 106q11 4 11 -6v-962q0 -9 -9 -9h-120q-9 0 -9 9v804q0 10 -8 7l-133 -60q-6 -3 -6 6z" />
<glyph unicode="&#xba;" horiz-adv-x="784" d="M72 1098q0 145 93 235t228 90q134 0 227 -90.5t93 -234.5q0 -148 -92 -238t-228 -90t-228.5 90t-92.5 238zM201 1098q0 -100 58.5 -158.5t133.5 -58.5q73 0 132 59.5t59 157.5t-57.5 156.5t-133.5 58.5q-75 0 -133.5 -59.5t-58.5 -155.5z" />
<glyph unicode="&#xbb;" horiz-adv-x="868" d="M51 248v172q0 6 8 14l191 154l2 2q0 1 -1 2t-1 2l-193 164q-6 6 -6 12v178q0 4 4 4h4l369 -327q6 -6 6 -13v-43q0 -7 -6 -10l-369 -315l-4 -2q-4 0 -4 6zM434 248v172q0 6 8 14l191 154l2 2q0 1 -1 2t-1 2l-193 164q-6 6 -6 12v178q0 4 4 4h4l369 -327q6 -6 6 -13v-43 q0 -7 -6 -10l-369 -315l-4 -2q-4 0 -4 6z" />
<glyph unicode="&#xbc;" horiz-adv-x="1634" d="M123 1210v97q0 5 6 8l268 106q11 4 11 -6v-962q0 -9 -9 -9h-120q-9 0 -9 9v804q0 10 -8 7l-133 -60q-6 -3 -6 6zM371 6l622 1380q3 7 8 7h119q8 0 4 -7l-624 -1380q-3 -6 -8 -6h-117q-7 0 -4 6zM874 211q0 -8 9 -8h454q9 0 9 -8v-187q0 -8 8 -8h114q9 0 9 8v187q0 8 8 8 h104q8 0 8 8v92q0 8 -8 8h-104q-8 0 -8 8v648q0 8 -9 8h-192q-5 0 -8 -6l-391 -650q-3 -6 -3 -10v-98zM1014 319l325 543q1 3 4 3t3 -3v-543q0 -8 -9 -8h-319q-8 0 -4 8z" />
<glyph unicode="&#xbd;" horiz-adv-x="1724" d="M123 1210v97q0 5 6 8l268 106q11 4 11 -6v-962q0 -9 -9 -9h-120q-9 0 -9 9v804q0 10 -8 7l-133 -60q-6 -3 -6 6zM371 6l622 1380q3 7 8 7h119q8 0 4 -7l-624 -1380q-3 -6 -8 -6h-117q-7 0 -4 6zM1012 8v144q0 48 13 88.5t29.5 66.5t51.5 55t59 44t74 44t74 44l24 15 q88 55 111 81q36 49 37 129q0 67 -38.5 101t-111.5 34h-18q-75 0 -120.5 -42t-45.5 -118v-41q0 -8 -8 -8h-121q-8 0 -8 8v37q0 120 77.5 195.5t215.5 75.5h43q125 0 197.5 -64t72.5 -184q0 -42 -4.5 -73.5t-18.5 -60t-31 -49.5t-51 -47t-68 -47.5t-93 -56.5 q-120 -70 -146 -92q-50 -42 -56 -104q-1 -11 -1 -25v-43q0 -9 8 -9h459q8 0 8 -8v-90q0 -8 -8 -8h-598q-8 0 -8 8z" />
<glyph unicode="&#xbe;" horiz-adv-x="1839" d="M72 680v29q0 8 8 8h115q8 0 8 -8v-15q0 -64 51 -104.5t141 -40.5q195 0 195 176v33q0 44 -20 76.5t-55 50t-75 25.5t-86 8h-59q-8 0 -8 8v96q0 8 8 8h61q37 0 69.5 7t62.5 23.5t47.5 48t17.5 75.5q0 68 -42.5 100.5t-113.5 32.5q-151 0 -151 -123q0 -8 -8 -8h-113 q-8 0 -8 8v25q0 95 80 149.5t200 54.5q133 0 213 -60t80 -179q0 -76 -51 -132t-117 -75v-2q36 -7 67.5 -20t65 -37t53 -65t19.5 -95v-35q0 -127 -95 -204t-239 -77q-135 0 -228 65.5t-93 172.5zM575 6l623 1380q4 7 8 7h119q7 0 4 -7l-624 -1380q-3 -6 -9 -6h-116q-8 0 -5 6 zM1079 211v98q0 6 2 10l392 650q3 6 8 6h192q8 0 8 -8v-648q0 -8 9 -8h104q8 0 8 -8v-92q0 -8 -8 -8h-104q-9 0 -9 -8v-187q0 -8 -8 -8h-114q-9 0 -9 8v187q0 8 -8 8h-455q-8 0 -8 8zM1219 319q-4 -8 4 -8h319q8 0 8 8v543q0 3 -2 3t-4 -3z" />
<glyph unicode="&#xbf;" horiz-adv-x="1044" d="M98 -104q0 61 12.5 110.5t30 84t55 72t69.5 62.5t91 66q74 53 94.5 93t20.5 101v70q0 8 8 8h135q9 0 9 -8v-70q0 -101 -38 -159.5t-161 -145.5q-99 -69 -130.5 -127t-31.5 -162q0 -91 68.5 -148.5t177.5 -57.5q68 0 116.5 22t74.5 63.5t37.5 92.5t11.5 117q0 8 8 8h149 q8 0 8 -8q0 -89 -22.5 -163.5t-69 -134.5t-126.5 -94t-187 -34q-193 0 -301.5 99.5t-108.5 242.5zM465 694v275q0 8 8 8h143q9 0 9 -8v-275q0 -8 -11 -8h-141q-8 0 -8 8z" />
<glyph unicode="&#xc0;" horiz-adv-x="1267" d="M10 3.5q2 -3.5 6 -3.5h150q5 0 8 8l158 430q3 8 10 8h580q7 0 10 -8l160 -430q3 -8 8 -8h153q10 0 7 8l-512 1376q-3 9 -11 9h-219q-7 0 -10 -9l-498 -1374q-2 -3 0 -6.5zM389 600l238 657q0 1 2 1t2 -1l246 -659q2 -8 -7 -8h-473q-11 0 -8 10zM414 1792q-4 8 4 8h155 q8 0 11 -8l104 -276q2 -9 -6 -9h-127q-5 0 -10 9z" />
<glyph unicode="&#xc1;" horiz-adv-x="1267" d="M10 3.5q2 -3.5 6 -3.5h150q5 0 8 8l158 430q3 8 10 8h580q7 0 10 -8l160 -430q3 -8 8 -8h153q10 0 7 8l-512 1376q-3 9 -11 9h-219q-7 0 -10 -9l-498 -1374q-2 -3 0 -6.5zM389 600l238 657q0 1 2 1t2 -1l246 -659q2 -8 -7 -8h-473q-11 0 -8 10zM578 1542l104 277 q3 8 10 8h156q8 0 4 -8l-131 -277q-4 -8 -10 -8h-127q-8 0 -6 8z" />
<glyph unicode="&#xc2;" horiz-adv-x="1267" d="M10 3.5q-2 3.5 0 6.5l498 1374q3 9 10 9h219q8 0 11 -9l512 -1376q3 -8 -7 -8h-153q-5 0 -8 8l-160 430q-3 8 -10 8h-580q-7 0 -10 -8l-158 -430q-3 -8 -8 -8h-150q-4 0 -6 3.5zM320 1530.5q-1 2.5 2 5.5l235 248q4 4 8 4h127q4 0 8 -4l236 -248q3 -3 2 -5.5t-4 -2.5 h-164q-6 0 -10 4l-127 143q-3 3 -6 0l-129 -143q-4 -4 -11 -4h-163q-3 0 -4 2.5zM389 600q-3 -10 8 -10h473q9 0 7 8l-246 659q0 1 -2 1t-2 -1z" />
<glyph unicode="&#xc3;" horiz-adv-x="1269" d="M12 3.5q-2 3.5 0 6.5l498 1374q3 9 10 9h219q8 0 11 -9l512 -1376q3 -8 -7 -8h-153q-5 0 -8 8l-160 430q-3 8 -10 8h-580q-7 0 -10 -8l-158 -430q-3 -8 -8 -8h-150q-4 0 -6 3.5zM309 1548q0 108 49 170t146 62q48 0 88 -18.5t62.5 -40t50.5 -40t55 -18.5q61 0 61 102 q0 9 6 9h117q8 0 8 -9q0 -101 -50.5 -166t-141.5 -65q-45 0 -85.5 19t-64.5 41.5t-52.5 41.5t-53.5 19q-22 0 -36 -10.5t-19 -30.5t-6 -32.5t-1 -33.5q0 -8 -6 -8h-119q-8 0 -8 8zM391 600q-3 -10 8 -10h473q9 0 7 8l-246 659q0 1 -2 1t-2 -1z" />
<glyph unicode="&#xc4;" horiz-adv-x="1267" d="M10 3.5q-2 3.5 0 6.5l498 1374q3 9 10 9h219q8 0 11 -9l512 -1376q3 -8 -7 -8h-153q-5 0 -8 8l-160 430q-3 8 -10 8h-580q-7 0 -10 -8l-158 -430q-3 -8 -8 -8h-150q-4 0 -6 3.5zM387 1536v242q0 6 6 6h142q6 0 6 -6v-242q0 -6 -6 -6h-142q-6 0 -6 6zM389 600 q-3 -10 8 -10h473q9 0 7 8l-246 659q0 1 -2 1t-2 -1zM719 1536v242q0 6 6 6h141q6 0 6 -6v-242q0 -6 -6 -6h-141q-6 0 -6 6z" />
<glyph unicode="&#xc5;" horiz-adv-x="1267" d="M10 3.5q2 -3.5 6 -3.5h150q5 0 8 8l158 430q3 8 10 8h580q7 0 10 -8l160 -430q3 -8 8 -8h153q10 0 7 8l-512 1376q-3 9 -11 9h-219q-7 0 -10 -9l-498 -1374q-2 -3 0 -6.5zM389 600l238 657q0 1 2 1t2 -1l246 -659q2 -8 -7 -8h-473q-11 0 -8 10zM446 1659q0 74 56.5 129 t130.5 55q75 0 129.5 -54.5t54.5 -129.5q0 -74 -55 -130t-129 -56t-130.5 56.5t-56.5 129.5zM555 1659q0 -31 22 -54.5t56 -23.5t55 23.5t21 54.5t-21 53.5t-55 22.5t-56 -23t-22 -53z" />
<glyph unicode="&#xc6;" horiz-adv-x="1810" d="M2 4l733 1380q5 9 10 9h916q8 0 8 -9v-127q0 -8 -8 -8h-670q-8 0 -8 -8v-436q0 -8 8 -8h598q8 0 8 -9v-124q0 -9 -8 -9h-598q-8 0 -8 -8v-495q0 -9 8 -9h709q8 0 8 -8v-127q0 -8 -8 -8h-869q-8 0 -8 8v430q-3 8 -10 8h-401q-8 0 -11 -8l-223 -430l-4 -4q-2 -4 -8 -4h-156 q-8 0 -8 4zM483 600q-3 -10 9 -10h325q6 0 6 8v647q0 4 -2 5q-3 0 -4 -5z" />
<glyph unicode="&#xc7;" horiz-adv-x="1335" d="M119 578v245q0 127 33.5 233t102 189.5t183.5 130.5t267 47q127 0 230.5 -42.5t168 -113.5t99 -160t34.5 -185q0 -9 -8 -9h-146q-10 0 -10 9q0 152 -102.5 251t-265.5 99q-216 0 -322.5 -117t-106.5 -362v-185q0 -495 447 -495q152 0 251 98t99 250q0 8 10 8h146 q8 0 8 -8q0 -87 -30.5 -169t-89.5 -151t-155.5 -113.5t-216.5 -50.5q-4 0 -4 -4l-26 -94q-1 -3 0.5 -3.5t3.5 1.5q30 19 69 19q193 0 193 -166q0 -102 -55 -159.5t-162 -57.5q-215 0 -215 161q0 9 8 9h107q8 0 8 -9q0 -75 90 -75t90 112q0 52 -23.5 74t-72.5 22 q-56 0 -84 -28q-4 -4 -8 -4h-101q-9 0 -6 8l57 190q4 7 -4 7q-133 15 -229 63.5t-152.5 127.5t-83 179t-26.5 228z" />
<glyph unicode="&#xc8;" horiz-adv-x="1196" d="M143 8q0 -8 9 -8h933q9 0 9 8v127q0 8 -9 8h-774q-8 0 -8 9v495q0 8 8 8h664q8 0 8 9v124q0 9 -8 9h-664q-8 0 -8 8v436q0 8 8 8h736q8 0 8 8v127q0 9 -8 9h-895q-9 0 -9 -9v-1376zM424 1794q-4 8 4 8h156q7 0 10 -8l104 -276q2 -9 -6 -9h-127q-5 0 -10 9z" />
<glyph unicode="&#xc9;" horiz-adv-x="1196" d="M143 8q0 -8 9 -8h933q9 0 9 8v127q0 8 -9 8h-774q-8 0 -8 9v495q0 8 8 8h664q8 0 8 9v124q0 9 -8 9h-664q-8 0 -8 8v436q0 8 8 8h736q8 0 8 8v127q0 9 -8 9h-895q-9 0 -9 -9v-1376zM535 1518l104 276q3 8 10 8h156q8 0 4 -8l-131 -276q-4 -9 -10 -9h-127q-8 0 -6 9z" />
<glyph unicode="&#xca;" horiz-adv-x="1196" d="M143 8v1376q0 9 9 9h895q8 0 8 -9v-127q0 -8 -8 -8h-736q-8 0 -8 -8v-436q0 -8 8 -8h664q8 0 8 -9v-124q0 -9 -8 -9h-664q-8 0 -8 -8v-495q0 -9 8 -9h774q9 0 9 -8v-127q0 -8 -9 -8h-933q-9 0 -9 8zM309 1528.5q-1 2.5 2 5.5l236 248q4 4 8 4h127q4 0 8 -4l236 -248 q3 -3 2 -5.5t-4 -2.5h-164q-6 0 -10 4l-127 143q-3 3 -7 0l-129 -143q-4 -4 -10 -4h-164q-3 0 -4 2.5z" />
<glyph unicode="&#xcb;" horiz-adv-x="1196" d="M143 8v1376q0 9 9 9h895q8 0 8 -9v-127q0 -8 -8 -8h-736q-8 0 -8 -8v-436q0 -8 8 -8h664q8 0 8 -9v-124q0 -9 -8 -9h-664q-8 0 -8 -8v-495q0 -9 8 -9h774q9 0 9 -8v-127q0 -8 -9 -8h-933q-9 0 -9 8zM377 1536v242q0 6 6 6h141q6 0 6 -6v-242q0 -6 -6 -6h-141q-6 0 -6 6z M709 1536v242q0 6 6 6h141q6 0 6 -6v-242q0 -6 -6 -6h-141q-6 0 -6 6z" />
<glyph unicode="&#xcc;" horiz-adv-x="571" d="M78 1794q-4 8 4 8h156q7 0 10 -8l104 -276q2 -9 -6 -9h-127q-5 0 -10 9zM205 8q0 -8 8 -8h145q9 0 9 8v1376q0 9 -9 9h-145q-8 0 -8 -9v-1376z" />
<glyph unicode="&#xcd;" horiz-adv-x="571" d="M205 8q0 -8 8 -8h145q9 0 9 8v1376q0 9 -9 9h-145q-8 0 -8 -9v-1376zM223 1518l105 276q3 8 10 8h156q8 0 4 -8l-131 -276q-5 -9 -11 -9h-127q-8 0 -6 9z" />
<glyph unicode="&#xce;" horiz-adv-x="571" d="M-24.5 1528.5q-1.5 2.5 1.5 5.5l236 248q4 4 8 4h127q4 0 8 -4l236 -248q3 -3 2 -5.5t-4 -2.5h-164q-6 0 -10 4l-127 143q-3 3 -6 0l-129 -143q-4 -4 -11 -4h-163q-3 0 -4.5 2.5zM205 8v1376q0 9 8 9h145q9 0 9 -9v-1376q0 -8 -9 -8h-145q-8 0 -8 8z" />
<glyph unicode="&#xcf;" horiz-adv-x="571" d="M49 1536v242q0 6 6 6h142q6 0 6 -6v-242q0 -6 -6 -6h-142q-6 0 -6 6zM205 8v1376q0 9 8 9h145q9 0 9 -9v-1376q0 -8 -9 -8h-145q-8 0 -8 8zM381 1536v242q0 6 6 6h141q7 0 7 -6v-242q0 -6 -7 -6h-141q-6 0 -6 6z" />
<glyph unicode="&#xd0;" horiz-adv-x="1333" d="M-10 614v134q0 8 8 8h170q8 0 8 8v620q0 9 8 9h408q139 0 255.5 -38t203.5 -112t135.5 -189.5t48.5 -262.5v-191q0 -298 -164 -449t-479 -151h-408q-8 0 -8 8v590q0 8 -8 8h-170q-8 0 -8 8zM336 152q0 -9 8 -9h291q229 0 336.5 113.5t107.5 355.5v158q0 227 -126 353 t-330 126h-279q-8 0 -8 -8v-477q0 -8 8 -8h262q8 0 8 -8v-134q0 -8 -8 -8h-262q-8 0 -8 -8v-446z" />
<glyph unicode="&#xd1;" horiz-adv-x="1323" d="M143 8v1376q0 9 9 9h161q5 0 9 -4l700 -1158q4 -8 4 0q-6 74 -6 404v749q0 9 8 9h143q9 0 9 -9v-1376q0 -8 -9 -8h-161q-5 0 -9 4l-700 1157q-4 8 -4 0q6 -45 6 -409v-744q0 -8 -8 -8h-143q-9 0 -9 8zM344 1548q0 108 49 170t146 62q48 0 88 -18.5t62.5 -40t50.5 -40 t55 -18.5q61 0 61 102q0 9 6 9h117q8 0 8 -9q0 -101 -50.5 -166t-141.5 -65q-45 0 -85.5 19t-64.5 41.5t-52.5 41.5t-53.5 19q-22 0 -36 -10.5t-19 -30.5t-6 -32.5t-1 -33.5q0 -8 -6 -8h-119q-8 0 -8 8z" />
<glyph unicode="&#xd2;" horiz-adv-x="1314" d="M70 565v269q0 133 49 245.5t130.5 186.5t187 115.5t220.5 41.5t220.5 -41.5t187.5 -115.5t131 -186.5t49 -245.5v-269q0 -128 -45 -239t-123.5 -189t-187 -123t-232.5 -45t-232.5 45t-186.5 123t-123 189t-45 239zM227 594q0 -119 34.5 -213t94.5 -151.5t136.5 -87 t164.5 -29.5t164.5 29.5t136.5 87t94.5 151.5t34.5 213v209q0 218 -122 347.5t-308 129.5t-308 -129.5t-122 -347.5v-209zM459 1794q-4 8 4 8h155q8 0 11 -8l104 -276q2 -9 -6 -9h-127q-6 0 -10 9z" />
<glyph unicode="&#xd3;" horiz-adv-x="1314" d="M70 565v269q0 133 49 245.5t130.5 186.5t187 115.5t220.5 41.5t220.5 -41.5t187.5 -115.5t131 -186.5t49 -245.5v-269q0 -128 -45 -239t-123.5 -189t-187 -123t-232.5 -45t-232.5 45t-186.5 123t-123 189t-45 239zM227 594q0 -119 34.5 -213t94.5 -151.5t136.5 -87 t164.5 -29.5t164.5 29.5t136.5 87t94.5 151.5t34.5 213v209q0 218 -122 347.5t-308 129.5t-308 -129.5t-122 -347.5v-209zM582 1518l104 276q3 8 10 8h156q8 0 4 -8l-131 -276q-5 -9 -10 -9h-127q-8 0 -6 9z" />
<glyph unicode="&#xd4;" horiz-adv-x="1314" d="M70 565v269q0 133 49 245.5t130.5 186.5t187 115.5t220.5 41.5t220.5 -41.5t187.5 -115.5t131 -186.5t49 -245.5v-269q0 -128 -45 -239t-123.5 -189t-187 -123t-232.5 -45t-232.5 45t-186.5 123t-123 189t-45 239zM227 594q0 -119 34.5 -213t94.5 -151.5t136.5 -87 t164.5 -29.5t164.5 29.5t136.5 87t94.5 151.5t34.5 213v209q0 218 -122 347.5t-308 129.5t-308 -129.5t-122 -347.5v-209zM348 1528.5q-1 2.5 2 5.5l236 248q4 4 8 4h127q4 0 8 -4l236 -248q3 -3 2 -5.5t-4 -2.5h-164q-7 0 -11 4l-126 143q-4 3 -7 0l-129 -143q-4 -4 -10 -4 h-164q-3 0 -4 2.5z" />
<glyph unicode="&#xd5;" horiz-adv-x="1314" d="M70 565v269q0 133 49 245.5t130.5 186.5t187 115.5t220.5 41.5t220.5 -41.5t187.5 -115.5t131 -186.5t49 -245.5v-269q0 -128 -45 -239t-123.5 -189t-187 -123t-232.5 -45t-232.5 45t-186.5 123t-123 189t-45 239zM227 594q0 -119 34.5 -213t94.5 -151.5t136.5 -87 t164.5 -29.5t164.5 29.5t136.5 87t94.5 151.5t34.5 213v209q0 218 -122 347.5t-308 129.5t-308 -129.5t-122 -347.5v-209zM336 1548q0 108 48.5 170t145.5 62q48 0 88 -18.5t62.5 -40t50.5 -40t55 -18.5q62 0 62 102q0 9 6 9h117q8 0 8 -9q0 -101 -51 -166t-142 -65 q-45 0 -85.5 19t-64.5 41.5t-52.5 41.5t-53.5 19q-15 0 -26.5 -4.5t-17.5 -15.5t-10 -19t-5.5 -24.5t-1.5 -22.5v-21q0 -8 -6 -8h-119q-8 0 -8 8z" />
<glyph unicode="&#xd6;" horiz-adv-x="1314" d="M70 565v269q0 133 49 245.5t130.5 186.5t187 115.5t220.5 41.5t220.5 -41.5t187.5 -115.5t131 -186.5t49 -245.5v-269q0 -128 -45 -239t-123.5 -189t-187 -123t-232.5 -45t-232.5 45t-186.5 123t-123 189t-45 239zM227 594q0 -119 34.5 -213t94.5 -151.5t136.5 -87 t164.5 -29.5t164.5 29.5t136.5 87t94.5 151.5t34.5 213v209q0 218 -122 347.5t-308 129.5t-308 -129.5t-122 -347.5v-209zM412 1534v242q0 6 6 6h141q6 0 6 -6v-242q0 -6 -6 -6h-141q-6 0 -6 6zM743 1534v242q0 6 7 6h141q6 0 6 -6v-242q0 -6 -6 -6h-141q-7 0 -7 6z" />
<glyph unicode="&#xd7;" horiz-adv-x="1083" d="M119 1026q-5 5 0 10l92 92q6 6 12 0l316 -321q5 -5 10 0l315 321q6 6 13 0l92 -92q5 -5 0 -10l-316 -319q-7 -7 0 -13l308 -303q1 -1 1 -5t-1 -5l-91 -92q-4 -8 -12 0l-309 309q-5 5 -10 0l-310 -309q-8 -8 -12 0l-90 92q-1 1 -1 5t1 5l307 305q6 6 0 11z" />
<glyph unicode="&#xd8;" horiz-adv-x="1314" d="M70 565v269q0 133 49 245.5t130.5 186.5t187 115.5t220.5 41.5q138 0 263 -61q5 -3 10 2l106 201q3 6 8 6h140q4 0 4 -4v-2l-144 -271q-3 -8 3 -14q93 -79 145.5 -193.5t52.5 -252.5v-269q0 -128 -45 -239t-123.5 -189t-187 -123t-232.5 -45q-145 0 -268 60q-10 5 -14 -4 l-88 -168q-3 -7 -8 -7h-138q-6 0 -4 7l129 241q5 10 -6 21q-91 81 -140.5 195.5t-49.5 250.5zM227 594q0 -216 105 -340q11 -11 16 0l508 971q4 8 -2 8q-92 47 -197 47q-186 0 -308 -129.5t-122 -347.5v-209zM453 174q-6 -11 4 -16q95 -45 200 -45q88 0 164.5 29.5t136.5 87 t94.5 151.5t34.5 213v209q0 212 -114 338q-7 7 -10 0z" />
<glyph unicode="&#xd9;" horiz-adv-x="1302" d="M119 475v909q0 9 8 9h143q9 0 9 -9l-3 -915q0 -78 21.5 -140.5t57 -102t85 -65.5t101.5 -37t110 -11q55 0 105 9.5t100.5 34.5t87 64t59.5 102.5t23 145.5l-2 915q0 9 8 9h144q8 0 8 -9v-909q0 -105 -29.5 -191t-80 -144t-119.5 -97t-145 -56.5t-159 -17.5 q-155 0 -274 57t-188.5 173t-69.5 276zM453 1794q-4 8 4 8h155q8 0 11 -8l104 -276q2 -9 -6 -9h-127q-6 0 -10 9z" />
<glyph unicode="&#xda;" horiz-adv-x="1302" d="M119 475v909q0 9 8 9h143q9 0 9 -9l-3 -915q0 -78 21.5 -140.5t57 -102t85 -65.5t101.5 -37t110 -11q55 0 105 9.5t100.5 34.5t87 64t59.5 102.5t23 145.5l-2 915q0 9 8 9h144q8 0 8 -9v-909q0 -105 -29.5 -191t-80 -144t-119.5 -97t-145 -56.5t-159 -17.5 q-155 0 -274 57t-188.5 173t-69.5 276zM580 1518l104 276q3 8 10 8h156q8 0 4 -8l-131 -276q-5 -9 -10 -9h-127q-8 0 -6 9z" />
<glyph unicode="&#xdb;" horiz-adv-x="1302" d="M119 475v909q0 9 8 9h143q9 0 9 -9l-3 -915q0 -78 21.5 -140.5t57 -102t85 -65.5t101.5 -37t110 -11q55 0 105 9.5t100.5 34.5t87 64t59.5 102.5t23 145.5l-2 915q0 9 8 9h144q8 0 8 -9v-909q0 -105 -29.5 -191t-80 -144t-119.5 -97t-145 -56.5t-159 -17.5 q-155 0 -274 57t-188.5 173t-69.5 276zM342 1528.5q-1 2.5 2 5.5l236 248q4 4 8 4h127q4 0 8 -4l235 -248q3 -3 2 -5.5t-4 -2.5h-163q-7 0 -11 4l-127 143q-3 3 -6 0l-129 -143q-4 -4 -10 -4h-164q-3 0 -4 2.5z" />
<glyph unicode="&#xdc;" horiz-adv-x="1302" d="M119 475v909q0 9 8 9h143q9 0 9 -9l-3 -915q0 -78 21.5 -140.5t57 -102t85 -65.5t101.5 -37t110 -11q55 0 105 9.5t100.5 34.5t87 64t59.5 102.5t23 145.5l-2 915q0 9 8 9h144q8 0 8 -9v-909q0 -105 -29.5 -191t-80 -144t-119.5 -97t-145 -56.5t-159 -17.5 q-155 0 -274 57t-188.5 173t-69.5 276zM408 1534v242q0 6 6 6h141q6 0 6 -6v-242q0 -6 -6 -6h-141q-6 0 -6 6zM739 1534v242q0 6 6 6h142q6 0 6 -6v-242q0 -6 -6 -6h-142q-6 0 -6 6z" />
<glyph unicode="&#xdd;" horiz-adv-x="1210" d="M2.5 1390q1.5 3 5.5 3h174q8 0 11 -7l409 -653q4 -8 8 0l408 653q4 7 10 7h174q3 0 5 -3t-1 -6l-518 -792q-4 -6 -4 -14v-570q0 -8 -8 -8h-141q-9 0 -9 8v570q0 8 -4 14l-518 792q-3 3 -1.5 6zM522 1520l105 276q3 8 10 8h156q8 0 4 -8l-131 -276q-4 -9 -11 -9h-127 q-8 0 -6 9z" />
<glyph unicode="&#xde;" horiz-adv-x="1056" d="M139 8v1376q0 9 8 9h134q8 0 8 -9v-358q0 -3 1 -4.5t3 -0.5t4 5q37 76 111 127t172 51q186 0 291.5 -112t105.5 -299v-215q0 -183 -99.5 -290.5t-279.5 -107.5q-207 0 -301 148q-1 2 -3 3t-3.5 -0.5t-1.5 -6.5v-316q0 -8 -8 -8h-134q-8 0 -8 8zM289 604 q0 -136 84.5 -213.5t210.5 -77.5t183.5 71t57.5 210v182q0 149 -67.5 222t-177.5 73q-122 0 -206.5 -98t-84.5 -236v-133z" />
<glyph unicode="&#xdf;" horiz-adv-x="1241" d="M143 8l2 979q0 97 25.5 174t78 137t142.5 92.5t211 32.5q117 0 211 -32.5t155.5 -107.5t61.5 -183q0 -110 -52.5 -187t-143.5 -112q-12 -4 0 -4q147 -32 229 -135.5t82 -245.5q0 -101 -39 -182t-106.5 -131t-153 -76.5t-182.5 -26.5h-226q-6 0 -6 8v127q0 8 6 8h219 q157 0 244.5 73t87.5 200q0 72 -32.5 130.5t-87.5 95t-123.5 56t-143.5 19.5h-164q-6 0 -6 8v119q0 8 6 8h129q141 0 223 64t82 171q0 87 -71.5 142t-200.5 55q-305 0 -305 -285l-2 -991q0 -8 -8 -8h-133q-9 0 -9 8z" />
<glyph unicode="&#xe0;" horiz-adv-x="1036" d="M80 266q0 148 92.5 225.5t261.5 100.5q323 46 326 47q6 3 6 8v35q0 92 -66.5 138t-175.5 46q-112 0 -170 -44t-78 -128q-3 -8 -8 -8h-149q-5 0 -6.5 1t-1.5 7q32 148 138 230t286 82q187 0 288 -98t101 -283v-316q0 -87 15.5 -174t29.5 -127q2 -8 -8 -8h-148q-4 0 -6 6 q-28 67 -39 166q0 3 -2 3t-4 -3q-44 -82 -138.5 -142.5t-232.5 -60.5q-141 0 -226 82t-85 215zM238 272q0 -70 47 -116.5t135 -46.5q135 0 240.5 91t105.5 232v78q0 6 -2 7q-1 0 -4 -1q-24 -5 -299 -51q-123 -21 -173 -67t-50 -126zM342 1401q-4 8 4 8h156q7 0 10 -8 l104 -277q2 -8 -6 -8h-127q-6 0 -10 8z" />
<glyph unicode="&#xe1;" horiz-adv-x="1036" d="M80 266q0 148 92.5 225.5t261.5 100.5q323 46 326 47q6 3 6 8v35q0 92 -66.5 138t-175.5 46q-112 0 -170 -44t-78 -128q-3 -8 -8 -8h-149q-5 0 -6.5 1t-1.5 7q32 148 138 230t286 82q187 0 288 -98t101 -283v-316q0 -87 15.5 -174t29.5 -127q2 -8 -8 -8h-148q-4 0 -6 6 q-28 67 -39 166q0 3 -2 3t-4 -3q-44 -82 -138.5 -142.5t-232.5 -60.5q-141 0 -226 82t-85 215zM238 272q0 -70 47 -116.5t135 -46.5q135 0 240.5 91t105.5 232v78q0 6 -2 7q-1 0 -4 -1q-24 -5 -299 -51q-123 -21 -173 -67t-50 -126zM489 1124l105 277q3 8 10 8h156q8 0 4 -8 l-131 -277q-4 -8 -10 -8h-127q-9 0 -7 8z" />
<glyph unicode="&#xe2;" horiz-adv-x="1036" d="M80 266q0 148 92.5 225.5t261.5 100.5q323 46 326 47q6 3 6 8v35q0 92 -66.5 138t-175.5 46q-112 0 -170 -44t-78 -128q-3 -8 -8 -8h-149q-5 0 -6.5 1t-1.5 7q32 148 138 230t286 82q187 0 288 -98t101 -283v-316q0 -87 15.5 -174t29.5 -127q2 -8 -8 -8h-148q-4 0 -6 6 q-28 67 -39 166q0 3 -2 3t-4 -3q-44 -82 -138.5 -142.5t-232.5 -60.5q-141 0 -226 82t-85 215zM209 1133q-1 3 2 6l235 247q5 5 9 5h127q3 0 8 -5l235 -247q3 -3 2 -6t-4 -3h-164q-5 0 -10 5l-127 143q-3 3 -6 0l-129 -143q-5 -5 -10 -5h-164q-3 0 -4 3zM238 272 q0 -70 47 -116.5t135 -46.5q135 0 240.5 91t105.5 232v78q0 6 -2 7q-1 0 -4 -1q-24 -5 -299 -51q-123 -21 -173 -67t-50 -126z" />
<glyph unicode="&#xe3;" horiz-adv-x="1036" d="M80 266q0 148 92.5 225.5t261.5 100.5q323 46 326 47q6 3 6 8v35q0 92 -66.5 138t-175.5 46q-112 0 -170 -44t-78 -128q-3 -8 -8 -8h-149q-5 0 -6.5 1t-1.5 7q32 148 138 230t286 82q187 0 288 -98t101 -283v-316q0 -87 15.5 -174t29.5 -127q2 -8 -8 -8h-148q-4 0 -6 6 q-28 67 -39 166q0 3 -2 3t-4 -3q-44 -82 -138.5 -142.5t-232.5 -60.5q-141 0 -226 82t-85 215zM193 1153q0 108 48.5 169.5t145.5 61.5q48 0 88 -18t62.5 -40t50.5 -40t55 -18q62 0 62 102q0 8 6 8h116q9 0 9 -8q0 -101 -51 -166t-142 -65q-45 0 -85.5 19t-64.5 41.5 t-52.5 41.5t-53.5 19q-15 0 -26.5 -4.5t-17.5 -15.5t-10 -19t-5.5 -24.5t-1.5 -22.5v-21q0 -8 -7 -8h-118q-8 0 -8 8zM238 272q0 -70 47 -116.5t135 -46.5q135 0 240.5 91t105.5 232v78q0 6 -2 7q-1 0 -4 -1q-24 -5 -299 -51q-123 -21 -173 -67t-50 -126z" />
<glyph unicode="&#xe4;" horiz-adv-x="1036" d="M80 266q0 148 92.5 225.5t261.5 100.5q323 46 326 47q6 3 6 8v35q0 92 -66.5 138t-175.5 46q-112 0 -170 -44t-78 -128q-3 -8 -8 -8h-149q-5 0 -6.5 1t-1.5 7q32 148 138 230t286 82q187 0 288 -98t101 -283v-316q0 -87 15.5 -174t29.5 -127q2 -8 -8 -8h-148q-4 0 -6 6 q-28 67 -39 166q0 3 -2 3t-4 -3q-44 -82 -138.5 -142.5t-232.5 -60.5q-141 0 -226 82t-85 215zM238 272q0 -70 47 -116.5t135 -46.5q135 0 240.5 91t105.5 232v78q0 6 -2 7q-1 0 -4 -1q-24 -5 -299 -51q-123 -21 -173 -67t-50 -126zM272 1141v241q0 7 7 7h141q6 0 6 -7v-241 q0 -6 -6 -6h-141q-7 0 -7 6zM604 1141v241q0 7 6 7h142q6 0 6 -7v-241q0 -6 -6 -6h-142q-6 0 -6 6z" />
<glyph unicode="&#xe5;" horiz-adv-x="1036" d="M80 266q0 148 92.5 225.5t261.5 100.5q323 46 326 47q6 3 6 8v35q0 92 -66.5 138t-175.5 46q-112 0 -170 -44t-78 -128q-3 -8 -8 -8h-149q-5 0 -6.5 1t-1.5 7q32 148 138 230t286 82q187 0 288 -98t101 -283v-316q0 -87 15.5 -174t29.5 -127q2 -8 -8 -8h-148q-4 0 -6 6 q-28 67 -39 166q0 3 -2 3t-4 -3q-44 -82 -138.5 -142.5t-232.5 -60.5q-141 0 -226 82t-85 215zM238 272q0 -70 47 -116.5t135 -46.5q135 0 240.5 91t105.5 232v78q0 6 -2 7q-1 0 -4 -1q-24 -5 -299 -51q-123 -21 -173 -67t-50 -126zM340 1264q0 74 56 129t130 55 q75 0 130 -54.5t55 -129.5q0 -74 -55.5 -130.5t-129.5 -56.5q-73 0 -129.5 56.5t-56.5 130.5zM449 1264q0 -31 21.5 -54.5t55.5 -23.5t55 23.5t21 54.5t-21 53t-55 22t-55.5 -22.5t-21.5 -52.5z" />
<glyph unicode="&#xe6;" horiz-adv-x="1771" d="M80 270q0 147 96 227.5t258 94.5l184 16q90 7 126 23t36 43v8q0 93 -72.5 140.5t-183.5 47.5q-113 0 -180.5 -50.5t-67.5 -125.5q0 -8 -8 -8h-149q-8 0 -8 4v4q0 96 62 168.5t157 108t205 35.5q247 0 342 -160q128 160 350 160q216 0 342.5 -126t126.5 -321v-113 q0 -8 -8 -8h-746q-8 0 -8 -8v-24q0 -134 86.5 -215.5t247.5 -81.5q202 0 260 176q3 8 8 8h143q9 0 9 -6q-59 -171 -160.5 -244.5t-261.5 -73.5q-148 0 -253 60.5t-165 165.5q-59 -99 -172.5 -162.5t-247.5 -63.5q-156 0 -252 86.5t-96 214.5zM236 283q0 -82 49 -129.5 t149 -47.5q142 0 244 80t102 209v127q0 4 -2 4q-71 -35 -172 -47l-145 -16q-117 -13 -171 -58t-54 -122zM934 580q0 -9 8 -9h588q8 0 8 9q0 135 -84.5 212.5t-226.5 77.5q-135 0 -214 -77.5t-79 -212.5z" />
<glyph unicode="&#xe7;" horiz-adv-x="1026" d="M76 414v145q0 91 31 171.5t89 142t147.5 97.5t199.5 36q170 0 290.5 -100t120.5 -253q0 -8 -8 -8h-137q-8 0 -8 8q0 95 -79 159.5t-181 64.5q-133 0 -218 -87.5t-85 -244.5v-115q0 -159 84.5 -245.5t218.5 -86.5q119 0 191.5 64t72.5 151q0 9 8 9h133q8 0 8 -9 q-4 -65 -30.5 -124.5t-73.5 -107.5t-120.5 -78t-164.5 -34q-4 0 -4 -4l-24 -86q-1 -3 0.5 -3.5t3.5 1.5q30 19 69 19q193 0 193 -166q0 -102 -55 -159.5t-162 -57.5q-215 0 -215 161q0 9 8 9h106q9 0 9 -9q0 -75 90 -75t90 112q0 52 -23.5 74t-72.5 22q-56 0 -84 -28 q-4 -4 -9 -4h-100q-9 0 -6 8l57 190q4 7 -4 7q-168 29 -262 148t-94 286z" />
<glyph unicode="&#xe8;" horiz-adv-x="1077" d="M76 449v100q0 195 124 326t332 131q216 0 342.5 -127.5t126.5 -323.5v-113q0 -8 -8 -8h-755q-9 0 -9 -8v-10q0 -135 91 -221t253 -86q205 0 261 172q3 8 8 8h143q8 0 8 -8q-32 -141 -148.5 -226.5t-273.5 -85.5q-234 0 -364.5 135t-130.5 345zM229 575q0 -8 9 -8h598 q8 0 8 8q0 135 -85 213t-227 78q-135 0 -219 -79t-84 -212zM338 1401q-4 8 4 8h156q7 0 10 -8l104 -277q2 -8 -6 -8h-127q-6 0 -10 8z" />
<glyph unicode="&#xe9;" horiz-adv-x="1077" d="M76 449v100q0 195 124 326t332 131q216 0 342.5 -127.5t126.5 -323.5v-113q0 -8 -8 -8h-755q-9 0 -9 -8v-10q0 -135 91 -221t253 -86q205 0 261 172q3 8 8 8h143q8 0 8 -8q-32 -141 -148.5 -226.5t-273.5 -85.5q-234 0 -364.5 135t-130.5 345zM229 575q0 -8 9 -8h598 q8 0 8 8q0 135 -85 213t-227 78q-135 0 -219 -79t-84 -212zM467 1124l104 277q3 8 11 8h155q8 0 4 -8l-131 -277q-4 -8 -10 -8h-127q-8 0 -6 8z" />
<glyph unicode="&#xea;" horiz-adv-x="1077" d="M76 449v100q0 195 124 326t332 131q216 0 342.5 -127.5t126.5 -323.5v-113q0 -8 -8 -8h-755q-9 0 -9 -8v-10q0 -135 91 -221t253 -86q205 0 261 172q3 8 8 8h143q8 0 8 -8q-32 -141 -148.5 -226.5t-273.5 -85.5q-234 0 -364.5 135t-130.5 345zM229 575q0 -8 9 -8h598 q8 0 8 8q0 135 -85 213t-227 78q-135 0 -219 -79t-84 -212zM229 1135.5q-1 2.5 2 5.5l236 248q4 4 8 4h127q4 0 8 -4l236 -248q3 -3 2 -5.5t-4 -2.5h-164q-6 0 -10 4l-127 143q-3 3 -6 0l-129 -143q-4 -4 -11 -4h-164q-3 0 -4 2.5z" />
<glyph unicode="&#xeb;" horiz-adv-x="1077" d="M76 449v100q0 195 124 326t332 131q216 0 342.5 -127.5t126.5 -323.5v-113q0 -8 -8 -8h-755q-9 0 -9 -8v-10q0 -135 91 -221t253 -86q205 0 261 172q3 8 8 8h143q8 0 8 -8q-32 -141 -148.5 -226.5t-273.5 -85.5q-234 0 -364.5 135t-130.5 345zM229 575q0 -8 9 -8h598 q8 0 8 8q0 135 -85 213t-227 78q-135 0 -219 -79t-84 -212zM295 1141v241q0 7 6 7h141q7 0 7 -7v-241q0 -6 -7 -6h-141q-6 0 -6 6zM627 1141v241q0 7 6 7h141q6 0 6 -7v-241q0 -6 -6 -6h-141q-6 0 -6 6z" />
<glyph unicode="&#xec;" horiz-adv-x="405" d="M0 1401q-4 8 4 8h156q7 0 10 -8l104 -277q2 -8 -6 -8h-127q-6 0 -10 8zM123 8v959q0 8 8 8h143q9 0 9 -8v-959q0 -8 -9 -8h-143q-8 0 -8 8z" />
<glyph unicode="&#xed;" horiz-adv-x="405" d="M123 8v959q0 8 8 8h143q9 0 9 -8v-959q0 -8 -9 -8h-143q-8 0 -8 8zM135 1126l105 277q3 8 10 8h156q8 0 4 -8l-131 -277q-4 -8 -11 -8h-127q-8 0 -6 8z" />
<glyph unicode="&#xee;" horiz-adv-x="405" d="M-106 1135.5q-1 2.5 2 5.5l235 248q4 4 8 4h127q4 0 8 -4l236 -248q3 -3 2 -5.5t-4 -2.5h-164q-6 0 -10 4l-127 143q-3 3 -6 0l-129 -143q-4 -4 -11 -4h-163q-3 0 -4 2.5zM123 8v959q0 8 8 8h143q9 0 9 -8v-959q0 -8 -9 -8h-143q-8 0 -8 8z" />
<glyph unicode="&#xef;" horiz-adv-x="405" d="M-47 1143v241q0 7 6 7h141q6 0 6 -7v-241q0 -6 -6 -6h-141q-6 0 -6 6zM123 8v959q0 8 8 8h143q9 0 9 -8v-959q0 -8 -9 -8h-143q-8 0 -8 8zM285 1143v241q0 7 6 7h141q6 0 6 -7v-241q0 -6 -6 -6h-141q-6 0 -6 6z" />
<glyph unicode="&#xf0;" horiz-adv-x="1030" d="M66 393q0 178 117.5 301t297.5 123q78 0 160.5 -31.5t120.5 -72.5q4 -4 4 2q-9 112 -75 225t-159 186q-4 2 -8 0l-297 -186q-4 -4 -4 2v131q0 4 2 6l189 121q2 2 0 4q-75 47 -185 76q-3 1 -4.5 2.5t-1.5 2.5v1v133q0 4 4 4q163 -29 324 -137q5 -3 8 0l250 156q4 2 4 -2 v-135q0 -5 -4 -7l-143 -88q-4 -2 0 -6q280 -254 280 -702q0 -247 -120 -390t-322 -143q-123 0 -220.5 46t-157.5 143.5t-60 234.5zM240 393q0 -128 73 -204t191 -76t190 83t72 199q0 112 -74 188t-192 76q-110 0 -185 -73.5t-75 -192.5z" />
<glyph unicode="&#xf1;" horiz-adv-x="1079" d="M131 8v959q0 8 8 8h115q5 0 8 -8l33 -168q0 -9 6 0q49 91 136 149t198 58q158 0 242 -90.5t84 -256.5v-651q0 -8 -9 -8h-145q-8 0 -8 8v619q0 239 -201 239q-94 0 -166 -53.5t-106.5 -133.5t-34.5 -171v-500q0 -8 -8 -8h-144q-8 0 -8 8zM201 1155q0 108 48.5 169.5 t145.5 61.5q48 0 88 -18t62.5 -40t50.5 -40t55 -18q62 0 62 102q0 8 6 8h117q8 0 8 -8q0 -101 -51 -166t-142 -65q-45 0 -85.5 19t-64.5 41.5t-52.5 41.5t-53.5 19q-15 0 -26.5 -4.5t-17.5 -15.5t-10 -19t-5.5 -24.5t-1.5 -22.5v-21q0 -8 -6 -8h-119q-8 0 -8 8z" />
<glyph unicode="&#xf2;" d="M74 432v107q0 220 133 343.5t346 123.5q215 0 346 -120t131 -347v-107q0 -201 -132 -332t-345 -131q-215 0 -347 129t-132 334zM231 449q0 -162 90 -251t232 -89q139 0 229 86.5t90 250.5v74q0 171 -90.5 258.5t-228.5 87.5q-144 0 -233 -88t-89 -260v-69zM352 1401 q-4 8 4 8h156q7 0 10 -8l105 -277q2 -8 -6 -8h-127q-7 0 -11 8z" />
<glyph unicode="&#xf3;" d="M74 432v107q0 220 133 343.5t346 123.5q215 0 346 -120t131 -347v-107q0 -201 -132 -332t-345 -131q-215 0 -347 129t-132 334zM231 449q0 -162 90 -251t232 -89q139 0 229 86.5t90 250.5v74q0 171 -90.5 258.5t-228.5 87.5q-144 0 -233 -88t-89 -260v-69zM477 1124 l105 277q3 8 10 8h156q8 0 4 -8l-131 -277q-4 -8 -11 -8h-127q-8 0 -6 8z" />
<glyph unicode="&#xf4;" d="M74 432v107q0 220 133 343.5t346 123.5q215 0 346 -120t131 -347v-107q0 -201 -132 -332t-345 -131q-215 0 -347 129t-132 334zM231 449q0 -162 90 -251t232 -89q139 0 229 86.5t90 250.5v74q0 171 -90.5 258.5t-228.5 87.5q-144 0 -233 -88t-89 -260v-69zM242 1135.5 q-1 2.5 2 5.5l235 248q4 4 8 4h127q5 0 9 -4l235 -248q3 -3 2 -5.5t-4 -2.5h-164q-6 0 -10 4l-127 143q-3 3 -6 0l-129 -143q-4 -4 -10 -4h-164q-3 0 -4 2.5z" />
<glyph unicode="&#xf5;" d="M74 432v107q0 220 133 343.5t346 123.5q215 0 346 -120t131 -347v-107q0 -201 -132 -332t-345 -131q-215 0 -347 129t-132 334zM229 1153q0 108 49 169.5t146 61.5q48 0 88 -18t62.5 -40t50.5 -40t55 -18q61 0 61 102q0 8 7 8h116q8 0 8 -8q0 -101 -50.5 -166t-141.5 -65 q-45 0 -85.5 19t-64.5 41.5t-52.5 41.5t-53.5 19q-22 0 -36 -10.5t-19 -30.5t-6 -32.5t-1 -33.5q0 -8 -6 -8h-118q-9 0 -9 8zM231 449q0 -162 90 -251t232 -89q139 0 229 86.5t90 250.5v74q0 171 -90.5 258.5t-228.5 87.5q-144 0 -233 -88t-89 -260v-69z" />
<glyph unicode="&#xf6;" d="M74 432v107q0 220 133 343.5t346 123.5q215 0 346 -120t131 -347v-107q0 -201 -132 -332t-345 -131q-215 0 -347 129t-132 334zM231 449q0 -162 90 -251t232 -89q139 0 229 86.5t90 250.5v74q0 171 -90.5 258.5t-228.5 87.5q-144 0 -233 -88t-89 -260v-69zM309 1143v241 q0 7 6 7h142q6 0 6 -7v-241q0 -6 -6 -6h-142q-6 0 -6 6zM641 1143v241q0 7 6 7h141q7 0 7 -7v-241q0 -6 -7 -6h-141q-6 0 -6 6z" />
<glyph unicode="&#xf7;" horiz-adv-x="1007" d="M72 637q0 -8 8 -8h848q8 0 8 8v129q0 8 -8 8h-848q-8 0 -8 -8v-129zM375 967q0 47 35 81.5t84 34.5q47 0 81.5 -34.5t34.5 -81.5q0 -49 -34.5 -84t-81.5 -35q-50 0 -84.5 35t-34.5 84zM379 430q0 48 35 82.5t84 34.5q47 0 81.5 -35t34.5 -82q0 -49 -34.5 -84t-81.5 -35 q-50 0 -84.5 34.5t-34.5 84.5z" />
<glyph unicode="&#xf8;" d="M74 432v107q0 220 133 343.5t346 123.5q86 0 170 -23q7 0 8 2l84 158q3 6 8 6h138q4 0 4 -4l-113 -213q-1 -3 -0.5 -6.5t2.5 -3.5q176 -121 176 -383v-107q0 -201 -132 -332t-345 -131q-87 0 -180 27q-11 5 -17 -4l-71 -135q-3 -7 -9 -7h-135q-7 0 -4 7l105 198 q4 7 -4 15q-78 63 -121 155.5t-43 206.5zM231 449q0 -150 84 -244q5 -5 7 0l337 641q1 2 0.5 4t-2.5 2q-46 14 -104 14q-144 0 -233 -88t-89 -260v-69zM430 135q-1 -3 0.5 -5.5t3.5 -2.5q56 -18 119 -18q139 0 229 86.5t90 250.5v74q0 169 -94 260q-3 3 -6 0z" />
<glyph unicode="&#xf9;" horiz-adv-x="1060" d="M80 369q0 -105 28 -184t78 -125t111.5 -68.5t134.5 -22.5q112 0 199.5 58t136.5 149q6 9 6 0l33 -168q3 -8 8 -8h141q12 0 9 10q-27 101 -27 244v713q0 8 -8 8h-144q-8 0 -8 -8v-439q0 -193 -83 -306t-234 -113q-221 0 -221 243v615q0 8 -9 8h-143q-8 0 -8 -8v-598z M311 1401q-4 8 4 8h156q7 0 10 -8l105 -277q2 -8 -6 -8h-127q-7 0 -11 8z" />
<glyph unicode="&#xfa;" horiz-adv-x="1060" d="M80 369q0 -105 28 -184t78 -125t111.5 -68.5t134.5 -22.5q112 0 199.5 58t136.5 149q6 9 6 0l33 -168q3 -8 8 -8h141q12 0 9 10q-27 101 -27 244v713q0 8 -8 8h-144q-8 0 -8 -8v-439q0 -193 -83 -306t-234 -113q-221 0 -221 243v615q0 8 -9 8h-143q-8 0 -8 -8v-598z M436 1126l105 277q3 8 10 8h156q8 0 4 -8l-131 -277q-4 -8 -11 -8h-127q-8 0 -6 8z" />
<glyph unicode="&#xfb;" horiz-adv-x="1060" d="M80 369v598q0 8 8 8h143q9 0 9 -8v-615q0 -243 221 -243q151 0 234 113t83 306v439q0 8 8 8h144q8 0 8 -8v-713q0 -143 27 -244q3 -10 -9 -10h-141q-5 0 -8 8l-33 168q0 9 -6 0q-49 -91 -136.5 -149t-199.5 -58q-73 0 -134.5 22.5t-111.5 68.5t-78 125t-28 184z M199 1143.5q-1 2.5 2 5.5l235 248q4 4 8 4h127q5 0 9 -4l235 -248q3 -3 2 -5.5t-4 -2.5h-164q-6 0 -10 4l-127 143q-3 3 -6 0l-129 -143q-4 -4 -10 -4h-164q-3 0 -4 2.5z" />
<glyph unicode="&#xfc;" horiz-adv-x="1060" d="M80 369v598q0 8 8 8h143q9 0 9 -8v-615q0 -243 221 -243q151 0 234 113t83 306v439q0 8 8 8h144q8 0 8 -8v-713q0 -143 27 -244q3 -10 -9 -10h-141q-5 0 -8 8l-33 168q0 9 -6 0q-49 -91 -136.5 -149t-199.5 -58q-73 0 -134.5 22.5t-111.5 68.5t-78 125t-28 184zM266 1143 v241q0 7 6 7h142q6 0 6 -7v-241q0 -6 -6 -6h-142q-6 0 -6 6zM598 1143v241q0 7 6 7h141q7 0 7 -7v-241q0 -6 -7 -6h-141q-6 0 -6 6z" />
<glyph unicode="&#xfd;" horiz-adv-x="915" d="M11 970q-1 2 0 3.5t5 1.5h166q10 0 13 -8l264 -674q1 -3 2.5 -4t3 0t2.5 4l258 674q3 8 12 8h162q4 0 4 -8l-514 -1207q-37 -84 -79.5 -125t-119.5 -41q-64 0 -108 44q-4 4 -4 12v147q0 3 3 4t5 -2q35 -63 86 -63q49 0 82 76l125 297q3 5 0 10l-367 848zM395 1124 l105 277q3 8 10 8h156q8 0 4 -8l-131 -277q-4 -8 -11 -8h-127q-8 0 -6 8z" />
<glyph unicode="&#xfe;" horiz-adv-x="1056" d="M139 -317v1701q0 9 8 9h134q8 0 8 -9v-559q0 -3 1 -4.5t3 -0.5t4 5q37 76 111 128.5t172 52.5q186 0 291.5 -113t105.5 -301v-225q0 -183 -99.5 -290.5t-279.5 -107.5q-207 0 -301 148q-1 2 -3 3t-3.5 -0.5t-1.5 -6.5v-430q0 -9 -8 -9h-134q-8 0 -8 9zM289 393 q0 -136 84.5 -213.5t210.5 -77.5t183.5 71t57.5 210v192q0 149 -67.5 223t-177.5 74q-122 0 -206.5 -98.5t-84.5 -236.5v-144z" />
<glyph unicode="&#xff;" horiz-adv-x="915" d="M11 970q-1 2 0 3.5t5 1.5h166q10 0 13 -8l264 -674q1 -3 2.5 -4t3 0t2.5 4l258 674q3 8 12 8h162q4 0 4 -8l-514 -1207q-37 -84 -79.5 -125t-119.5 -41q-64 0 -108 44q-4 4 -4 12v147q0 3 3 4t5 -2q35 -63 86 -63q49 0 82 76l125 297q3 5 0 10l-367 848zM221 1208v242 q0 6 6 6h142q6 0 6 -6v-242q0 -6 -6 -6h-142q-6 0 -6 6zM553 1208v242q0 6 6 6h141q7 0 7 -6v-242q0 -6 -7 -6h-141q-6 0 -6 6z" />
<glyph unicode="&#x152;" horiz-adv-x="1986" d="M70 543v311q0 260 144.5 414.5t379.5 154.5q135 0 239 -52t160 -140q6 -6 6 0v153q3 9 11 9h827q8 0 8 -9v-127q0 -8 -8 -8h-670q-8 0 -8 -8v-436q0 -8 8 -8h598q9 0 9 -9v-124q0 -9 -9 -9h-598q-8 0 -8 -8v-495q0 -9 8 -9h709q8 0 8 -8v-127q0 -8 -8 -8h-868q-9 0 -9 8 v174q-1 5 -4 0q-121 -213 -401 -213q-233 0 -378.5 161t-145.5 413zM233 571q0 -220 101 -339t280 -119q194 0 287 115.5t98 357.5v260q0 203 -96 316.5t-289 113.5q-189 0 -285 -116.5t-96 -330.5v-258z" />
<glyph unicode="&#x153;" horiz-adv-x="1875" d="M74 432v107q0 220 133 343.5t346 123.5q128 0 233.5 -52t159.5 -157q2 -4 4 -4l4 4q48 94 148.5 151.5t228.5 57.5q216 0 342.5 -127.5t126.5 -323.5v-113q0 -8 -8 -8h-756q-4 0 -5.5 -8t-1.5 -20t-1 -15q9 -126 99 -204t245 -78q207 0 260 172q3 8 8 8h144q8 0 8 -6v-2 q-32 -141 -148.5 -226.5t-273.5 -85.5q-144 0 -257 59t-159 158q-4 4 -6 4q-59 -108 -159.5 -164.5t-235.5 -56.5q-215 0 -347 129t-132 334zM231 449q0 -162 90 -251t232 -89q139 0 229 86.5t90 250.5v74q0 171 -90.5 258.5t-228.5 87.5q-144 0 -233 -88t-89 -260v-69z M1028 569q2 -2 8 -2h598q8 0 8 8q0 135 -84.5 213t-226.5 78q-135 -2 -218.5 -77.5t-84.5 -206.5v-13z" />
<glyph unicode="&#x178;" horiz-adv-x="1210" d="M2.5 1390q1.5 3 5.5 3h174q8 0 11 -7l409 -653q4 -8 8 0l408 653q4 7 10 7h174q3 0 5 -3t-1 -6l-518 -792q-4 -6 -4 -14v-570q0 -8 -8 -8h-141q-9 0 -9 8v570q0 8 -4 14l-518 792q-3 3 -1.5 6zM367 1567v241q0 7 6 7h141q6 0 6 -7v-241q0 -6 -6 -6h-141q-6 0 -6 6z M698 1567v241q0 7 7 7h141q6 0 6 -7v-241q0 -6 -6 -6h-141q-7 0 -7 6z" />
<glyph unicode="&#x2c6;" horiz-adv-x="1376" d="M377 1143.5q-1 2.5 2 5.5l235 248q4 4 9 4h127q4 0 8 -4l235 -248q3 -3 2 -5.5t-4 -2.5h-164q-6 0 -10 4l-127 143q-3 3 -6 0l-129 -143q-4 -4 -10 -4h-164q-3 0 -4 2.5z" />
<glyph unicode="&#x2dc;" horiz-adv-x="1001" d="M166 1153q0 108 48.5 169.5t145.5 61.5q48 0 88 -18t62.5 -40t50.5 -40t55 -18q62 0 62 102q0 8 6 8h117q8 0 8 -8q0 -101 -51 -166t-142 -65q-45 0 -85.5 19t-64.5 41.5t-52.5 41.5t-53.5 19q-15 0 -26.5 -4.5t-17.5 -15.5t-10 -19t-5.5 -24.5t-1.5 -22.5v-21 q0 -8 -6 -8h-119q-8 0 -8 8z" />
<glyph unicode="&#x2000;" horiz-adv-x="921" />
<glyph unicode="&#x2001;" horiz-adv-x="1843" />
<glyph unicode="&#x2002;" horiz-adv-x="921" />
<glyph unicode="&#x2003;" horiz-adv-x="1843" />
<glyph unicode="&#x2004;" horiz-adv-x="614" />
<glyph unicode="&#x2005;" horiz-adv-x="460" />
<glyph unicode="&#x2006;" horiz-adv-x="307" />
<glyph unicode="&#x2007;" horiz-adv-x="307" />
<glyph unicode="&#x2008;" horiz-adv-x="230" />
<glyph unicode="&#x2009;" horiz-adv-x="368" />
<glyph unicode="&#x200a;" horiz-adv-x="102" />
<glyph unicode="&#x2010;" horiz-adv-x="808" d="M113 522v129q0 8 8 8h567q8 0 8 -8v-129q0 -8 -8 -8h-567q-8 0 -8 8z" />
<glyph unicode="&#x2011;" horiz-adv-x="808" d="M113 522v129q0 8 8 8h567q8 0 8 -8v-129q0 -8 -8 -8h-567q-8 0 -8 8z" />
<glyph unicode="&#x2012;" horiz-adv-x="808" d="M113 522v129q0 8 8 8h567q8 0 8 -8v-129q0 -8 -8 -8h-567q-8 0 -8 8z" />
<glyph unicode="&#x2013;" horiz-adv-x="1316" d="M102 633v129q0 8 9 8h1095q8 0 8 -8v-129q0 -8 -8 -8h-1095q-9 0 -9 8z" />
<glyph unicode="&#x2014;" horiz-adv-x="1722" d="M92 633v129q0 8 8 8h1522q8 0 8 -8v-129q0 -8 -8 -8h-1522q-8 0 -8 8z" />
<glyph unicode="&#x2018;" horiz-adv-x="376" d="M61 825v381q0 109 34 163t130 54q8 0 8 -6v-63q0 -8 -8 -8q-51 0 -66.5 -30t-15.5 -108v-96q0 -4 7 -4h86q8 0 8 -8v-275q0 -8 -8 -8h-166q-9 0 -9 8z" />
<glyph unicode="&#x2019;" horiz-adv-x="376" d="M133 1110v274q0 9 8 9h166q8 0 8 -9v-380q0 -53 -6.5 -90t-23.5 -67.5t-50 -45.5t-83 -15q-9 0 -9 7v63q0 8 9 8q51 0 66 29.5t15 107.5v97q0 4 -6 4h-86q-8 0 -8 8z" />
<glyph unicode="&#x201a;" horiz-adv-x="468" d="M133 8v275q0 8 8 8h166q8 0 8 -8v-381q0 -109 -33.5 -163t-129.5 -54q-9 0 -9 6v63q0 8 9 8q51 0 66 30t15 108v96q0 4 -6 4h-86q-8 0 -8 8z" />
<glyph unicode="&#x201c;" horiz-adv-x="669" d="M61 825v381q0 109 34 163t130 54q8 0 8 -6v-63q0 -8 -8 -8q-51 0 -66.5 -30t-15.5 -108v-96q0 -4 7 -4h86q8 0 8 -8v-275q0 -8 -8 -8h-166q-9 0 -9 8zM354 825v381q0 109 34 163t130 54q8 0 8 -6v-63q0 -8 -8 -8q-51 0 -66.5 -30t-15.5 -108v-96q0 -4 6 -4h86q9 0 9 -8 v-275q0 -8 -9 -8h-166q-8 0 -8 8z" />
<glyph unicode="&#x201d;" horiz-adv-x="669" d="M133 1110v274q0 9 8 9h166q8 0 8 -9v-380q0 -53 -6.5 -90t-23.5 -67.5t-50 -45.5t-83 -15q-9 0 -9 7v63q0 8 9 8q51 0 66 29.5t15 107.5v97q0 4 -6 4h-86q-8 0 -8 8zM426 1110v274q0 9 8 9h166q8 0 8 -9v-380q0 -109 -34 -163.5t-130 -54.5q-8 0 -8 7v63q0 8 8 8 q51 0 66.5 30t15.5 107v97q0 4 -6 4h-86q-8 0 -8 8z" />
<glyph unicode="&#x201e;" horiz-adv-x="761" d="M133 8v275q0 8 8 8h166q8 0 8 -8v-381q0 -109 -33.5 -163t-129.5 -54q-9 0 -9 6v63q0 8 9 8q51 0 66 30t15 108v96q0 4 -6 4h-86q-8 0 -8 8zM426 8v275q0 8 8 8h166q8 0 8 -8v-381q0 -109 -34 -163t-130 -54q-8 0 -8 6v63q0 8 8 8q51 0 66.5 30t15.5 108v96q0 4 -6 4h-86 q-8 0 -8 8z" />
<glyph unicode="&#x2022;" horiz-adv-x="567" d="M123 588q0 65 48 112.5t114 47.5q64 0 111.5 -47.5t47.5 -112.5q0 -66 -47 -114t-112 -48q-66 0 -114 48t-48 114z" />
<glyph unicode="&#x2026;" horiz-adv-x="1191" d="M133 8v275q0 8 8 8h164q8 0 8 -8v-277q0 -6 -6 -6h-166q-8 0 -8 8zM506 8v275q0 8 8 8h164q8 0 8 -8v-277q0 -6 -6 -6h-166q-8 0 -8 8zM879 8v275q0 8 8 8h164q8 0 8 -8v-277q0 -6 -6 -6h-166q-8 0 -8 8z" />
<glyph unicode="&#x202f;" horiz-adv-x="368" />
<glyph unicode="&#x2039;" horiz-adv-x="485" d="M51 569v43q0 7 6 13l371 327q6 0 6 -4v-178q0 -6 -6 -12l-192 -164q-3 -3 -3 -4q1 -2 3 -2l190 -154q8 -8 8 -14v-172q0 -6 -4 -6q-2 0 -4 2l-369 315q-6 3 -6 10z" />
<glyph unicode="&#x203a;" horiz-adv-x="485" d="M51 248v172q0 6 8 14l191 154l2 2q0 1 -1 2t-1 2l-193 164q-6 6 -6 12v178q0 4 4 4h4l369 -327q6 -6 6 -13v-43q0 -7 -6 -10l-369 -315l-4 -2q-4 0 -4 6z" />
<glyph unicode="&#x205f;" horiz-adv-x="460" />
<glyph unicode="&#x20ac;" horiz-adv-x="1368" d="M41 487v123q0 11 8 11h103v124h-103q-8 0 -8 9v123q0 10 8 10h105q8 115 45.5 210t106 169.5t179 115.5t252.5 41q103 0 190.5 -28t149.5 -76t106 -112t65.5 -136.5t21.5 -148.5q0 -9 -8 -9h-146q-10 0 -10 9q0 161 -102 259.5t-267 98.5q-191 0 -297.5 -100t-126.5 -293 h363q8 0 8 -10v-123q0 -9 -8 -9h-367v-124h367q8 0 8 -11v-123q0 -8 -8 -8h-357q28 -176 135 -271t287 -95q169 0 267 96t98 252q0 8 10 8h146q8 0 8 -8q0 -72 -21 -142.5t-65.5 -133.5t-106.5 -111t-150 -76.5t-190 -28.5q-270 0 -413 137t-168 373h-107q-8 0 -8 8z" />
<glyph unicode="&#x2122;" horiz-adv-x="1402" d="M10 1284v102q0 7 6 7h752q4 0 6 -4l162 -535l2 -4q0 2 2 4l160 535q2 4 6 4h182q6 0 6 -7v-747q0 -6 -6 -6h-112q-7 0 -7 6v510q0 35 0.5 58t1 33t0.5 13q0 8 -4 0l-182 -616q-2 -4 -6 -4h-92q-4 0 -6 4l-183 616q0 3 -2 3t-2 -3t0.5 -13t1 -33t0.5 -58v-510q0 -6 -6 -6 h-112q-7 0 -7 6v633q0 6 -6 6h-209q-6 0 -6 -6v-633q0 -6 -6 -6h-113q-6 0 -6 6v633q0 6 -6 6h-203q-6 0 -6 6z" />
<glyph unicode="&#x25fc;" horiz-adv-x="972" d="M0 0v973h973v-973h-973z" />
</font>
</defs>
</svg>
